<?xml version="1.0" standalone="no"?>
<!DOCTYPE svg PUBLIC "-//W3C//DTD SVG 1.1//EN" "http://www.w3.org/Graphics/SVG/1.1/DTD/svg11.dtd" >
<svg xmlns="http://www.w3.org/2000/svg">
<metadata>Generated by IcoMoon</metadata>
<defs>
<font id="icomoon" horiz-adv-x="1024">
<font-face units-per-em="1024" ascent="870.850439882698" descent="-153.14956011730206" />
<missing-glyph horiz-adv-x="1024" />
<glyph unicode="&#x20;" horiz-adv-x="0" d="" />
<glyph unicode="&#xe800;" glyph-name="_savings_plans2" d="M908.151 443.125l-390.525-157.85c-3.075-1.025-7.175-1.025-10.25 0l-390.525 157.85c-12.3 5.125-12.3 21.525 0 26.65l390.525 157.85c3.075 1.025 7.175 1.025 10.25 0l390.525-157.85c12.3-5.125 12.3-22.55 0-26.65zM195.775 187.9h-61.5c-3.075 0-5.125 3.075-4.1 5.125l22.55 83.025c1.025 1.025 2.050 3.075 4.1 3.075h16.4c2.050 0 3.075-1.025 4.1-3.075l22.55-83.025c1.025-2.050-1.025-5.125-4.1-5.125zM288.025 343.7l220.375-89.175c3.075-1.025 5.125-1.025 8.2 0l220.375 89.175c4.1 1.025 8.2-1.025 9.225-4.1 6.15-14.35 17.425-50.225 18.45-94.3 0-3.075-2.050-6.15-6.15-7.175-45.1-4.1-166.050-48.175-241.9-109.675-2.050-2.050-6.15-2.050-8.2 0-75.85 62.525-196.8 104.55-241.9 109.675-4.1 1.025-6.15 4.1-6.15 7.175 1.025 44.075 12.3 79.95 18.45 94.3 1.025 3.075 5.125 5.125 9.225 4.1z" />
<glyph unicode="&#xe801;" glyph-name="adjustable-rate-mortgage" d="M974.776 242.225l-8.2 44.075c0 4.1-3.075 6.15-7.175 7.175l-75.85 12.3c-3.075 1.025-5.125 2.050-6.15 4.1l-22.55 37.925c-1.025 2.050-1.025 5.125 0 7.175l26.65 72.775c2.050 3.075 1.025 7.175-2.050 9.225l-34.85 29.725c-3.075 2.050-7.175 2.050-10.25 1.025l-66.625-39.975c-2.050-1.025-5.125-1.025-7.175 0l-41 14.35c-3.075 1.025-4.1 3.075-5.125 5.125l-25.625 72.775c-1.025 4.1-5.125 6.15-8.2 6.15h-46.125c-3.075 0-6.15-2.050-8.2-6.15l-25.625-72.775c-1.025-2.050-2.050-4.1-5.125-5.125l-41-14.35c-3.075-1.025-5.125-1.025-7.175 0l-66.625 39.975c-3.075 2.050-7.175 1.025-10.25-1.025l-34.85-29.725c-2.050-2.050-3.075-6.15-2.050-9.225l26.65-72.775c1.025-2.050 1.025-5.125 0-7.175l-22.55-37.925c-1.025-2.050-3.075-3.075-6.15-4.1l-75.85-12.3c-4.1 0-7.175-3.075-7.175-7.175l-8.2-45.1c0-3.075 1.025-7.175 4.1-8.2l67.65-37.925c2.050-1.025 3.075-4.1 4.1-6.15l7.175-44.075c1.025-2.050 0-5.125-2.050-7.175l-50.225-58.425c-2.050-2.050-2.050-6.15-1.025-9.225l22.55-39.975c2.050-3.075 6.15-4.1 9.225-4.1l75.85 14.35c3.075 1.025 5.125 0 7.175-2.050l33.825-27.675c2.050-2.050 3.075-4.1 3.075-7.175l-1.025-76.875c0-4.1 2.050-7.175 6.15-8.2l42.025-15.375c4.1-1.025 7.175 0 10.25 2.050l48.175 60.475c2.050 2.050 4.1 3.075 7.175 3.075h44.075c2.050 0 5.125-1.025 6.15-3.075l49.2-60.475c2.050-2.050 6.15-4.1 9.225-2.050l43.050 15.375c3.075 1.025 5.125 4.1 5.125 8.2l-1.025 76.875c0 3.075 1.025 5.125 3.075 7.175l33.825 27.675c2.050 2.050 5.125 3.075 7.175 2.050l75.85-14.35c4.1 0 7.175 1.025 9.225 4.1l22.55 39.975c2.050 3.075 2.050 7.175-1.025 9.225l-50.225 58.425c-1.025 2.050-2.050 5.125-2.050 7.175l8.2 44.075c0 2.050 2.050 4.1 4.1 6.15l66.625 37.925c6.15 2.050 8.2 5.125 7.175 9.225zM668.301 31.075c-106.6-7.175-195.775 80.975-188.6 188.6 6.15 88.15 77.9 159.9 166.050 165.025 106.6 7.175 195.775-80.975 188.6-188.6-6.15-88.15-77.9-159.9-166.050-165.025zM317.75 430.825h47.15c3.075 0 6.15 2.050 7.175 5.125l22.55 68.675c0 1.025 2.050 3.075 3.075 4.1l30.75 17.425c2.050 1.025 4.1 1.025 5.125 1.025l70.725-14.35c3.075-1.025 7.175 1.025 8.2 3.075l23.575 41c1.025 3.075 1.025 6.15-1.025 8.2l-48.175 54.325c-1.025 1.025-2.050 3.075-2.050 5.125v34.85c0 2.050 1.025 4.1 2.050 5.125l48.175 54.325c2.050 2.050 2.050 6.15 1.025 8.2l-23.575 41c-1.025 3.075-5.125 4.1-8.2 3.075l-70.725-14.35c-2.050 0-3.075 0-5.125 1.025l-30.75 17.425c-1.025 1.025-3.075 3.075-3.075 4.1l-22.55 68.675c-1.025 3.075-4.1 5.125-7.175 5.125h-47.15c-3.075 0-6.15-2.050-7.175-5.125l-22.55-68.675c0-1.025-2.050-3.075-3.075-4.1l-30.75-17.425c-2.050-1.025-4.1-1.025-5.125-1.025l-70.725 14.35c-3.075 1.025-7.175-1.025-8.2-3.075l-23.575-41c-1.025-3.075-1.025-6.15 1.025-8.2l48.175-54.325c1.025-1.025 2.050-3.075 2.050-5.125v-34.85c0-2.050-1.025-4.1-2.050-5.125l-48.175-54.325c-2.050-2.050-2.050-6.15-1.025-8.2l23.575-41c1.025-3.075 5.125-4.1 8.2-3.075l70.725 14.35c2.050 0 3.075 0 5.125-1.025l30.75-17.425c1.025-1.025 3.075-3.075 3.075-4.1l22.55-68.675c1.025-3.075 4.1-5.125 7.175-5.125zM239.85 631.725c-6.15 64.575 47.15 117.875 111.725 111.725 47.15-5.125 86.1-43.050 90.2-91.225 6.15-63.55-47.15-116.85-110.7-110.7-48.175 5.125-86.1 43.050-91.225 90.2zM301.35 296.55l37.925 29.725c2.050 2.050 3.075 5.125 2.050 8.2l-9.225 27.675c-1.025 3.075-4.1 5.125-8.2 5.125l-48.175-1.025c-2.050 0-3.075 1.025-5.125 2.050l-17.425 15.375c-1.025 1.025-2.050 3.075-2.050 5.125l-7.175 47.15c0 4.1-3.075 6.15-6.15 7.175l-28.7 5.125c-3.075 1.025-6.15-1.025-8.2-4.1l-23.575-42.025c-1.025-1.025-2.050-3.075-4.1-3.075l-21.525-8.2c-2.050 0-3.075 0-5.125 0l-45.1 18.45c-3.075 1.025-6.15 0-8.2-2.050l-19.475-22.55c-2.050-2.050-2.050-6.15-1.025-9.225l24.6-41c1.025-1.025 2.050-3.075 1.025-5.125l-4.1-22.55c0-2.050-1.025-4.1-3.075-5.125l-37.925-28.7c-2.050-2.050-3.075-6.15-2.050-9.225l9.225-27.675c1.025-3.075 4.1-5.125 8.2-5.125l48.175 1.025c2.050 0 3.075 0 5.125-2.050l17.425-14.35c1.025-1.025 2.050-3.075 2.050-5.125l7.175-48.175c0-3.075 3.075-6.15 6.15-6.15l28.7-6.15c3.075 0 6.15 1.025 8.2 4.1l23.575 42.025c1.025 2.050 2.050 3.075 4.1 4.1l21.525 7.175c2.050 1.025 3.075 1.025 5.125 0l45.1-17.425c3.075-1.025 6.15-1.025 8.2 2.050l19.475 21.525c2.050 3.075 2.050 6.15 1.025 9.225l-24.6 41c-1.025 2.050-2.050 4.1-1.025 6.15l4.1 22.55c0 2.050 1.025 3.075 3.075 4.1zM191.675 227.875c-47.15 3.075-77.9 49.2-63.55 94.3 9.225 30.75 39.975 51.25 71.75 49.2 47.15-3.075 77.9-49.2 63.55-94.3-9.225-29.725-38.95-50.225-71.75-49.2z" />
<glyph unicode="&#xe802;" glyph-name="apply-for-loan" d="M834.351 541.525l-330.050-531.976c0-1.025 0-1.025 0-2.050l-9.225-62.525c-1.025-3.075 3.075-5.125 5.125-3.075l52.275 35.875c0 1.025 0 1.025 1.025 1.025l329.025 531.976c7.175 12.3 4.1 27.675-8.2 34.85l-5.125 4.1c-12.3 7.175-27.675 3.075-34.85-8.2zM602.701 609.175c-4.1 8.2-26.65 16.4-50.225 12.3l-4.1 9.225c3.075 7.175 3.075 16.4 2.050 22.55 3.075 2.050 2.050 5.125 1.025 10.25 0 4.1-4.1 8.2-8.2 7.175v0l-4.1 9.225c0 1.025 0 2.050-1.025 2.050-5.125 13.325-21.525 17.425-35.875 11.275-14.35-7.175-21.525-22.55-15.375-34.85 0-1.025 0-2.050 1.025-2.050l5.125-9.225c-4.1-2.050-3.075-7.175-1.025-10.25 3.075-4.1 6.15-8.2 9.225-6.15v0c4.1-4.1 11.275-9.225 17.425-12.3l5.125-10.25c-18.45-14.35-26.65-36.9-23.575-45.1 5.125-10.25 7.175-15.375 7.175-15.375l102.5 47.15c-1.025-1.025-3.075 3.075-7.175 14.35zM233.7 525.125c-4.1 0-7.175 2.050-9.225 6.15-2.050 5.125 0 11.275 5.125 13.325l177.325 82c5.125 2.050 11.275 0 13.325-5.125s0-11.275-5.125-14.35l-176.3-80.975c-2.050-1.025-4.1-1.025-5.125-1.025zM273.675 436.975c-4.1 0-7.175 2.050-9.225 6.15-2.050 5.125 0 11.275 5.125 14.35l177.325 80.975c5.125 3.075 11.275 0 13.325-5.125s0-11.275-5.125-13.325l-176.3-82c-2.050 0-3.075-1.025-5.125-1.025zM314.675 349.85c-4.1 0-8.2 2.050-9.225 6.15-3.075 5.125 0 11.275 5.125 13.325l332.1 153.75c5.125 2.050 11.275 0 13.325-5.125s0-11.275-5.125-14.35l-332.1-152.725c-1.025-1.025-3.075-1.025-4.1-1.025zM354.65 261.7c-4.1 0-7.175 2.050-9.225 6.15-2.050 5.125 0 11.275 5.125 14.35l332.1 152.725c5.125 3.075 11.275 0 14.35-5.125s0-11.275-5.125-13.325l-332.1-153.75c-2.050-1.025-3.075-1.025-5.125-1.025zM727.751 337.55l-332.1-153.75 424.35 44.075-118.9-56.375-22.55-35.875 172.2 78.925c6.15 2.050 9.225 9.225 6.15 15.375l-52.275 110.7-13.325-22.55 33.825-74.825c3.075-5.125 1.025-12.3-5.125-15.375zM415.125 52.6l-247.025 533.001c-2.050 5.125 0 11.275 5.125 14.35l396.675 182.45c5.125 3.075 11.275 0 14.35-5.125l155.8-338.25 14.35 23.575-159.9 344.4c-2.050 5.125-8.2 8.2-14.35 5.125l-435.625-201.925c-5.125-3.075-7.175-9.225-5.125-14.35l265.475-572.976c2.050-6.15 8.2-8.2 14.35-5.125l86.1 41 21.525 35.875-97.375-47.15c-6.15-3.075-12.3 0-14.35 5.125zM386.425 179.7c1.025-3.075 5.125-6.15 9.225-6.15 1.025 0 3.075 1.025 4.1 1.025l248.050 114.8 19.475 31.775-276.75-127.1c-4.1-3.075-7.175-9.225-4.1-14.35z" />
<glyph unicode="&#xe803;" glyph-name="checking-accounts" d="M504.3 230.95l77.9-32.8c2.050 0 4.1 2.050 3.075 3.075l-31.775 78.925c0 0 0 1.025 0 1.025l-386.425 384.375c-8.2 8.2-24.6 6.15-35.875-5.125l-8.2-8.2c-11.275-11.275-13.325-26.65-5.125-35.875l386.425-384.375c0-1.025 0-1.025 0-1.025zM783.101 292.45c-9.225 0-17.425 3.075-23.575 5.125-2.050 1.025-5.125 0-5.125-2.050l-3.075-12.3c-1.025-2.050 0-3.075 2.050-4.1 5.125-3.075 13.325-5.125 21.525-6.15 2.050 0 4.1-2.050 4.1-3.075v-8.2c0-2.050 1.025-4.1 3.075-4.1h9.225c2.050 0 3.075 2.050 3.075 4.1v10.25c0 2.050 2.050 3.075 3.075 3.075 17.425 4.1 26.65 16.4 26.65 30.75s-8.2 23.575-27.675 30.75c-14.35 5.125-19.475 9.225-19.475 14.35s3.075 9.225 14.35 9.225c8.2 0 15.375-2.050 19.475-4.1 2.050-1.025 5.125 1.025 5.125 3.075l3.075 11.275c1.025 2.050 0 3.075-2.050 4.1-4.1 2.050-10.25 3.075-17.425 4.1-2.050 0-3.075 2.050-3.075 4.1v7.175c0 2.050-2.050 3.075-4.1 3.075h-8.2c-2.050 0-4.1-1.025-4.1-3.075v-9.225c0-1.025-1.025-3.075-3.075-3.075-15.375-4.1-24.6-15.375-24.6-28.7 0-16.4 12.3-24.6 29.725-30.75 12.3-4.1 17.425-8.2 17.425-14.35-1.025-7.175-7.175-11.275-16.4-11.275zM535.051 167.4c0-6.15 6.15-12.3 12.3-12.3h281.875c6.15 0 12.3 6.15 12.3 12.3 0 7.175-6.15 12.3-12.3 12.3h-281.875c-6.15 0-12.3-5.125-12.3-12.3zM230.625 155.1h243.95c6.15 0 12.3 6.15 12.3 12.3 0 7.175-6.15 12.3-12.3 12.3h-243.95c-6.15 0-12.3-5.125-12.3-12.3s5.125-12.3 12.3-12.3zM230.625 356h116.85l-24.6 24.6h-92.25c-6.15 0-12.3-6.15-12.3-12.3s5.125-12.3 12.3-12.3zM899.951 510.775h-546.326l70.725-70.725h449.975c4.1 0 7.175-3.075 7.175-6.15v-310.575c0-4.1-3.075-7.175-7.175-7.175h-695.976c-3.075 0-6.15 3.075-6.15 6.15v310.575c0 4.1 3.075 7.175 7.175 7.175h83.025l-70.725 70.725h-36.9c-7.175 0-13.325-6.15-13.325-13.325v-399.75c0-7.175 6.15-13.325 13.325-13.325h745.176c7.175 0 12.3 6.15 12.3 13.325v399.75c0 8.2-5.125 13.325-12.3 13.325zM230.625 296.55h175.275l-24.6 24.6h-149.65c-7.175 0-12.3-5.125-12.3-12.3s4.1-12.3 11.275-12.3zM693.926 322.175h-151.7l24.6-24.6h126.075c7.175 0 12.3 5.125 12.3 12.3s-5.125 12.3-11.275 12.3z" />
<glyph unicode="&#xe804;" glyph-name="call" d="M657.026 279.125c-3.075 0-6.15 1.025-9.225 2.050-7.175 5.125-9.225 14.35-4.1 21.525 32.8 50.225 31.775 102.5-3.075 148.625-5.125 6.15-4.1 16.4 3.075 21.525s16.4 4.1 21.525-3.075c43.050-56.375 45.1-123 4.1-184.5-2.050-4.1-7.175-6.15-12.3-6.15zM713.401 216.6c-3.075 0-6.15 1.025-9.225 2.050-7.175 5.125-9.225 14.35-4.1 21.525 60.475 92.25 58.425 188.6-5.125 273.675-5.125 6.15-4.1 16.4 3.075 21.525 6.15 5.125 16.4 4.1 21.525-3.075 71.75-94.3 73.8-207.050 7.175-308.525-4.1-5.125-9.225-7.175-13.325-7.175zM767.726 137.675c-3.075 0-5.125 1.025-8.2 2.050-7.175 5.125-9.225 14.35-4.1 21.525 95.325 144.525 92.25 298.275-9.225 431.525-5.125 6.15-4.1 16.4 3.075 21.525 6.15 5.125 16.4 4.1 21.525-3.075 53.3-70.725 82-145.55 84.050-225.5 3.075-82-21.525-162.975-73.8-241.9-3.075-4.1-8.2-6.15-13.325-6.15zM558.626 759.85h-358.75c-16.4 0-29.725-13.325-29.725-29.725v-705.201c0-16.4 13.325-29.725 29.725-29.725h358.75c16.4 0 29.725 13.325 29.725 29.725v705.201c1.025 16.4-13.325 29.725-29.725 29.725zM386.425 34.15c-22.55-5.125-42.025 14.35-36.9 36.9 3.075 11.275 12.3 20.5 23.575 23.575 22.55 5.125 42.025-14.35 36.9-36.9-3.075-12.3-12.3-20.5-23.575-23.575zM522.75 133.575h-287c-10.25 0-19.475 8.2-19.475 19.475v541.201c0 11.275 8.2 20.5 19.475 20.5h287c11.275 0 20.5-9.225 20.5-20.5v-541.201c0-11.275-9.225-19.475-20.5-19.475z" />
<glyph unicode="&#xe805;" glyph-name="check-reordering" d="M512.5 798.8v-293.15c0-8.2 9.225-11.275 14.35-6.15l146.575 146.575c3.075 3.075 3.075 9.225 0 12.3l-146.575 146.575c-5.125 5.125-14.35 2.050-14.35-6.15zM512.5 709.625c-213.2 0-385.4-176.3-380.275-390.525 4.1-201.925 169.125-366.95 371.050-371.050 215.25-5.125 390.525 167.075 390.525 380.275 0 84.050-27.675 160.925-72.775 224.475-4.1 5.125-9.225 6.15-14.35 2.050-4.1-3.075-50.225-36.9-58.425-43.050-7.175-6.15-8.2-8.2-3.075-14.35 37.925-52.275 58.425-118.9 53.3-189.625-10.25-144.525-128.125-259.325-272.65-265.475-164-8.2-300.325 123-300.325 285.975 0 158.875 129.15 287 287 287" />
<glyph unicode="&#xe806;" glyph-name="chip-enabled-credit-card" d="M764.651 685.025h-504.3c-32.8 0-54.325-22.55-54.325-55.35v-504.3c0-26.65 21.525-55.35 54.325-55.35h504.3c33.825 0 53.3 28.7 54.325 55.35v504.3c0 33.825-21.525 55.35-54.325 55.35zM745.176 104.875h-467.4c-23.575 0-39.975 21.525-39.975 39.975v123h56.375c3.075 0 4.1 2.050 4.1 6.15v24.6c0 3.075-2.050 6.15-4.1 6.15h-56.375v139.4h56.375c3.075 0 4.1 2.050 4.1 6.15v24.6c0 3.075-2.050 6.15-4.1 6.15h-56.375v132.225c0 23.575 16.4 39.975 39.975 39.975h467.4c23.575 0 39.975-16.4 39.975-39.975v-132.225h-56.375c-3.075 0-5.125-3.075-5.125-6.15v-24.6c0-3.075 2.050-6.15 5.125-6.15h56.375v-139.4h-56.375c-3.075 0-5.125-3.075-5.125-6.15v-24.6c0-3.075 2.050-6.15 5.125-6.15h56.375v-123c0-19.475-15.375-39.975-39.975-39.975zM726.726 366.25v28.7c0 4.1-2.050 7.175-4.1 7.175h-69.7v107.625c0 3.075-3.075 5.125-6.15 5.125h-59.45v58.425c6.15 4.1 10.25 11.275 10.25 19.475 0 12.3-11.275 23.575-23.575 23.575s-23.575-11.275-23.575-23.575c0-8.2 4.1-15.375 10.25-19.475v-58.425h-99.425v58.425c6.15 4.1 10.25 11.275 10.25 19.475 0 12.3-10.25 23.575-23.575 23.575s-23.575-11.275-23.575-23.575c0-8.2 4.1-15.375 10.25-19.475v-58.425h-59.45c-3.075 0-6.15-2.050-6.15-5.125v-107.625h-69.7c-2.050 0-4.1-3.075-4.1-7.175v-28.7c0-4.1 2.050-7.175 4.1-7.175h69.7v-120.95c0-3.075 3.075-5.125 6.15-5.125h59.45v-58.425c-6.15-4.1-10.25-11.275-10.25-19.475 0-12.3 11.275-23.575 23.575-23.575s23.575 11.275 23.575 23.575c0 8.2-4.1 15.375-10.25 19.475v58.425h99.425v-58.425c-6.15-4.1-10.25-11.275-10.25-19.475 0-12.3 10.25-23.575 23.575-23.575s23.575 11.275 23.575 23.575c0 8.2-4.1 15.375-10.25 19.475v58.425h59.45c3.075 0 6.15 2.050 6.15 5.125v120.95h69.7c2.050 0 4.1 3.075 4.1 7.175zM618.076 272.975c0-3.075-2.050-5.125-5.125-5.125h-201.925c-3.075 0-5.125 2.050-5.125 5.125v201.925c0 3.075 2.050 5.125 5.125 5.125h201.925c3.075 0 5.125-2.050 5.125-5.125v-201.925z" />
<glyph unicode="&#xe807;" glyph-name="bank-routing-numbers" d="M888.676 592.775h-752.351c-7.175 0-13.325-6.15-13.325-13.325v-403.85c0-7.175 6.15-13.325 13.325-13.325h752.351c7.175 0 13.325 6.15 13.325 13.325v403.85c0 7.175-6.15 13.325-13.325 13.325zM863.051 193.025h-703.151c-3.075 0-6.15 2.050-6.15 6.15v314.675c0 4.1 3.075 7.175 7.175 7.175h702.126c3.075 0 6.15-3.075 6.15-7.175v-313.65c1.025-4.1-2.050-7.175-6.15-7.175zM209.1 295.525h231.65c3.075 0 6.15-3.075 6.15-6.15v-47.15c0-4.1-3.075-6.15-6.15-6.15h-231.65c-4.1 0-6.15 2.050-6.15 6.15v47.15c0 3.075 2.050 6.15 6.15 6.15zM766.701 339.6v9.225c0 2.050-2.050 3.075-4.1 3.075-8.2 1.025-16.4 3.075-21.525 6.15-2.050 1.025-3.075 2.050-2.050 4.1l3.075 12.3c0 3.075 3.075 4.1 5.125 3.075 6.15-3.075 14.35-5.125 23.575-5.125s15.375 3.075 15.375 10.25c0 6.15-5.125 10.25-17.425 14.35-18.45 6.15-30.75 14.35-30.75 30.75 0 14.35 9.225 25.625 25.625 29.725 2.050 0 3.075 2.050 3.075 3.075v9.225c0 2.050 2.050 4.1 4.1 4.1h9.225c2.050 0 4.1-2.050 4.1-4.1v-7.175c0-2.050 1.025-4.1 3.075-4.1 8.2 0 13.325-2.050 17.425-4.1 2.050 0 3.075-2.050 2.050-4.1l-3.075-11.275c0-2.050-3.075-4.1-5.125-3.075-4.1 2.050-11.275 4.1-19.475 4.1-11.275 0-14.35-4.1-14.35-9.225s5.125-9.225 19.475-14.35c20.5-7.175 28.7-16.4 28.7-30.75s-9.225-26.65-26.65-30.75c-2.050 0-3.075-2.050-3.075-3.075v-10.25c0-2.050-2.050-4.1-4.1-4.1h-9.225c-2.050-1.025-3.075 0-3.075 2.050zM416.15 438h-202.95c-6.15 0-10.25 4.1-10.25 10.25s4.1 10.25 10.25 10.25h202.95c6.15 0 10.25-5.125 10.25-10.25s-4.1-10.25-10.25-10.25zM817.951 235.050h-284.95c-5.125 0-10.25 5.125-10.25 10.25s5.125 10.25 10.25 10.25h284.95c5.125 0 10.25-4.1 10.25-10.25s-5.125-10.25-10.25-10.25zM680.601 378.55h-467.4c-6.15 0-10.25 4.1-10.25 10.25s4.1 10.25 10.25 10.25h467.4c5.125 0 10.25-5.125 10.25-10.25s-5.125-10.25-10.25-10.25z" />
<glyph unicode="&#xe808;" glyph-name="commercial_card" d="M410 270.925c0 17.425 13.325 31.775 29.725 31.775h184.5c-32.8 22.55-72.775 44.075-116.85 56.375h-2.050v49.2c25.625 26.65 47.15 64.575 52.275 94.3 19.475 1.025 22.55 21.525 28.7 45.1 5.125 19.475-2.050 44.075-22.55 44.075h-1.025l3.075 52.275c0 3.075 0 7.175 0 10.25 0 67.65-62.525 121.975-139.4 121.975s-138.375-54.325-138.375-121.975c0-4.1 0-8.2 1.025-12.3l3.075-50.225h-1.025c-20.5 0-27.675-24.6-22.55-44.075 7.175-23.575 9.225-45.1 29.725-45.1v0c7.175-28.7 27.675-65.6 51.25-92.25v-50.225l-4.1-1.025c-108.65-29.725-191.675-110.7-191.675-154.775 0-53.3 0-82 0-82h256.25v148.625zM871.251 248.375v-240.875c0-16.4-13.325-28.7-28.7-28.7h-377.2c-15.375 0-27.675 11.275-28.7 26.65 0 0 0 1.025 0 2.050v240.875c0 15.375 12.3 28.7 28.7 28.7h378.225c15.375 0 27.675-13.325 27.675-28.7zM850.751 11.6v147.6h-393.6v-147.6c0-7.175 6.15-12.3 13.325-12.3h366.95c7.175 0 13.325 5.125 13.325 12.3zM850.751 222.75v20.5c0 7.175-6.15 12.3-13.325 12.3h-366.95c-7.175 0-13.325-5.125-13.325-12.3v-20.5h393.6z" />
<glyph unicode="&#xe809;" glyph-name="credit-cards" d="M945.051 379.575v-342.35c0-22.55-19.475-42.025-43.050-42.025h-544.276c-22.55 0-41 17.425-42.025 38.95 0 1.025 0 2.050 0 3.075v342.35c0 22.55 19.475 42.025 42.025 42.025h545.301c23.575 0 42.025-18.45 42.025-42.025zM917.376 43.375v208.075c0 2.050-2.050 4.1-4.1 4.1h-564.776c-2.050 0-4.1-2.050-4.1-4.1v-211.15c0-9.225 7.175-16.4 16.4-16.4h538.126c10.25 0 18.45 8.2 18.45 19.475zM916.351 351.9v22.55c0 10.25-8.2 18.45-19.475 18.45h-533.001c-10.25 0-19.475-8.2-19.475-18.45v-22.55c0-2.050 2.050-3.075 4.1-3.075h563.751c2.050 0 4.1 1.025 4.1 3.075zM229.6 500.525l488.925 92.25-73.8 143.5c-11.275 21.525-35.875 29.725-56.375 19.475l-484.825-251.125c-20.5-10.25-28.7-35.875-18.45-57.4l156.825-303.4c1.025-1.025 1.025-2.050 2.050-3.075 2.050-3.075 4.1-6.15 7.175-9.225l-58.425 314.675c-4.1 25.625 12.3 49.2 36.9 54.325zM272.65 316.025l-16.4 91.225-5.125 24.6c-2.050 10.25 5.125 20.5 15.375 22.55l526.851 97.375c10.25 2.050 19.475-5.125 21.525-15.375l5.125-24.6 12.3-63.55 26.65 1.025-19.475 98.4c-4.1 22.55-24.6 37.925-48.175 33.825l-536.076-100.45c-22.55-4.1-37.925-25.625-33.825-49.2l63.55-335.175c0-1.025 0-2.050 0-3.075 1.025-3.075 2.050-6.15 3.075-8.2l5.125 119.925-20.5 110.7zM462.275 54.65h-79.95c-3.075 0-6.15 3.075-6.15 6.15v26.65c0 3.075 3.075 6.15 6.15 6.15h79.95c3.075 0 6.15-3.075 6.15-6.15v-26.65c0-3.075-3.075-6.15-6.15-6.15zM699.051 54.65h-196.8c-3.075 0-6.15 2.050-6.15 5.125v28.7c0 3.075 3.075 6.15 6.15 6.15h196.8c3.075 0 5.125-3.075 5.125-6.15v-28.7c0-2.050-2.050-5.125-5.125-5.125z" />
<glyph unicode="&#xe80a;" glyph-name="credit-reports" d="M663.176 562.025c-5.125 0-10.25-1.025-16.4-5.125l-25.625 14.35c0 15.375-14.35 27.675-28.7 27.675-16.4 0-28.7-14.35-28.7-28.7 0-4.1 1.025-8.2 2.050-12.3l-36.9-56.375c-6.15 2.050-12.3 0-17.425-2.050l-20.5 16.4c0 1.025 0 4.1 0 5.125 0 16.4-14.35 28.7-28.7 28.7-16.4 0-28.7-13.325-28.7-28.7 0-16.4 13.325-28.7 28.7-28.7 4.1 0 6.15 0 9.225 2.050l23.575-19.475v-1.025c0-16.4 13.325-28.7 28.7-28.7 16.4 0 28.7 13.325 28.7 28.7 0 4.1 0 6.15-2.050 10.25l37.925 57.4c7.175 0 14.35 2.050 19.475 4.1l25.625-14.35c2.050-15.375 14.35-27.675 28.7-27.675 16.4 0 28.7 14.35 28.7 28.7 3.075 16.4-11.275 29.725-27.675 29.725zM435.625 169.45h296.225c6.15 0 10.25 4.1 10.25 10.25 0 5.125-4.1 10.25-10.25 10.25h-275.725c-7.175-7.175-14.35-14.35-20.5-20.5zM812.826 691.175c0 7.175-5.125 13.325-12.3 13.325h-478.675c-7.175 0-12.3-6.15-12.3-13.325v-460.225c7.175 8.2 14.35 16.4 22.55 24.6v419.225c0 3.075 3.075 6.15 7.175 6.15h443.825c3.075 0 6.15-3.075 6.15-6.15v-595.526c0-3.075-3.075-6.15-7.175-6.15h-424.35l-7.175-11.275c-3.075-4.1-7.175-8.2-11.275-11.275h459.2c7.175 0 13.325 6.15 13.325 13.325v227.55l1.025 399.75zM432.55 370.35h-44.075c-6.15 0-10.25-5.125-10.25-10.25 0-6.15 4.1-10.25 10.25-10.25h53.3c11.275 7.175 23.575 14.35 35.875 20.5h-45.1zM560.676 349.85h171.175c6.15 0 10.25 4.1 10.25 10.25 0 5.125-4.1 10.25-10.25 10.25h-182.45c4.1-4.1 7.175-9.225 9.225-15.375l2.050-5.125zM558.626 259.65h173.225c6.15 0 10.25 4.1 10.25 10.25 0 5.125-4.1 10.25-10.25 10.25h-157.85c-2.050-8.2-8.2-15.375-15.375-20.5zM312.625 81.3l-98.4 104.55c-2.050 2.050-2.050 6.15 0 8.2l36.9 34.85c3.075 2.050 6.15 2.050 8.2 0l47.15-49.2c2.050-2.050 6.15-2.050 8.2 1.025 39.975 50.225 117.875 137.35 202.95 167.075 3.075 1.025 6.15 0 7.175-3.075l16.4-49.2c1.025-3.075-1.025-6.15-4.1-7.175-99.425-35.875-195.775-178.35-196.8-179.375l-18.45-26.65c-2.050-4.1-6.15-4.1-9.225-1.025z" />
<glyph unicode="&#xe80b;" glyph-name="currency-processing" d="M511.475 592.775c-117.875 0-213.2-95.325-213.2-212.175s95.325-213.2 213.2-213.2 212.175 95.325 212.175 213.2-95.325 212.175-212.175 212.175zM526.851 267.85v-26.65c0-3.075-2.050-5.125-5.125-5.125h-23.575c-3.075 0-5.125 3.075-5.125 5.125v23.575c0 3.075-2.050 5.125-5.125 5.125-19.475 2.050-38.95 7.175-51.25 13.325-2.050 1.025-3.075 3.075-2.050 6.15l8.2 30.75c1.025 3.075 4.1 5.125 7.175 4.1 14.35-7.175 32.8-13.325 52.275-13.325s33.825 8.2 33.825 22.55c0 13.325-11.275 21.525-36.9 30.75-37.925 12.3-63.55 29.725-63.55 64.575 0 29.725 20.5 53.3 55.35 61.5 2.050 1.025 4.1 3.075 4.1 5.125v24.6c0 3.075 2.050 5.125 5.125 5.125h23.575c3.075 0 5.125-3.075 5.125-5.125v-21.525c0-2.050 2.050-5.125 5.125-5.125 18.45-1.025 31.775-5.125 42.025-9.225 2.050-1.025 3.075-4.1 3.075-6.15l-8.2-29.725c-1.025-3.075-4.1-5.125-7.175-4.1-9.225 4.1-24.6 10.25-45.1 10.25-23.575 0-30.75-10.25-30.75-20.5 0-11.275 12.3-18.45 43.050-29.725 42.025-15.375 58.425-34.85 58.425-66.625 0-29.725-20.5-56.375-58.425-64.575-2.050 0-4.1-2.050-4.1-5.125zM154.775 637.875l129.15-129.15c3.075-3.075 8.2-1.025 8.2 3.075v129.15c0 3.075-2.050 5.125-5.125 5.125h-129.15c-4.1 1.025-7.175-5.125-3.075-8.2zM227.55 259.65c-61.5 80.975-69.7 199.875 16.4 292.125l-54.325 51.25c-91.225-107.625-86.1-258.3 33.825-346.45 2.050-2.050 6.15 0 4.1 3.075M868.176 118.2l-129.15 129.15c-3.075 3.075-9.225 1.025-9.225-4.1v-129.15c0-3.075 3.075-5.125 5.125-5.125h129.15c5.125 0 7.175 5.125 4.1 9.225zM802.576 498.475c59.45-82 63.55-201.925-25.625-291.1l52.275-53.3c95.325 105.575 95.325 255.225-21.525 348.5-2.050 1.025-6.15-2.050-5.125-4.1" />
<glyph unicode="&#xe80c;" glyph-name="daily-credit-monitoring" d="M701.101 533.325c-10.25 0-20.5-3.075-30.75-10.25l-48.175 27.675c0 28.7-25.625 51.25-54.325 51.25-30.75 0-53.3-25.625-53.3-53.3 0-8.2 2.050-15.375 5.125-23.575l-69.7-104.55c-12.3 2.050-22.55 0-32.8-5.125l-38.95 30.75c0 2.050 0 7.175 0 10.25 0 30.75-25.625 53.3-53.3 53.3-30.75 0-54.325-25.625-54.325-53.3 0-30.75 25.625-54.325 54.325-54.325 7.175 0 12.3 0 17.425 3.075l44.075-35.875v-3.075c0-30.75 25.625-53.3 53.3-53.3 30.75 0 54.325 25.625 54.325 53.3 0 8.2 0 13.325-3.075 20.5l71.75 107.625c13.325 0 25.625 3.075 35.875 8.2l49.2-28.7c2.050-27.675 25.625-51.25 53.3-51.25 30.75 0 54.325 25.625 54.325 54.325 2.050 30.75-23.575 56.375-54.325 56.375zM512.5 119.225h-52.275c-5.125 0-8.2-3.075-8.2-7.175v-49.2c0 0 0-20.5-14.35-20.5h-73.8c-1.025 0-2.050-1.025-2.050-1.025-3.075-2.050-8.2-6.15-11.275-11.275-2.050-2.050 0-6.15 3.075-6.15h317.75c4.1 0 6.15 4.1 4.1 6.15-4.1 5.125-9.225 9.225-11.275 11.275-1.025 0-2.050 1.025-3.075 1.025h-72.775c-14.35 0-15.375 20.5-15.375 20.5v49.2c0 4.1-3.075 7.175-7.175 7.175h-53.3zM92.25 525.125v-346.45c0-15.375 13.325-27.675 28.7-27.675h783.101c15.375 0 28.7 12.3 28.7 27.675v524.801c0 15.375-13.325 28.7-28.7 28.7h-783.101c-15.375 0-28.7-13.325-28.7-28.7v-178.35zM683.676 242.225h-533.001c-12.3 0-22.55 10.25-22.55 22.55v410c0 12.3 10.25 21.525 22.55 21.525h725.701c12.3 0 21.525-9.225 21.525-21.525v-410c0-12.3-9.225-22.55-21.525-22.55h-192.7z" />
<glyph unicode="&#xe80d;" glyph-name="debit-cards" d="M844.601 635.825h-662.151c-27.675 0-51.25-22.55-51.25-51.25v-414.1c0-1.025 0-2.050 0-4.1 1.025-26.65 24.6-47.15 51.25-47.15h660.101c28.7 0 51.25 22.55 51.25 51.25v414.1c0 28.7-21.525 51.25-49.2 51.25zM753.376 421.6c-30.75 10.25-51.25 24.6-51.25 52.275 0 24.6 15.375 43.050 44.075 50.225 2.050 0 4.1 2.050 4.1 5.125v17.425c0 3.075 2.050 5.125 5.125 5.125h17.425c3.075 0 5.125-2.050 5.125-5.125v-14.35c0-3.075 2.050-5.125 5.125-5.125 13.325-1.025 23.575-4.1 31.775-7.175 3.075-1.025 4.1-4.1 3.075-6.15l-5.125-22.55c-1.025-3.075-4.1-4.1-7.175-3.075-8.2 3.075-19.475 7.175-35.875 7.175-18.45 0-24.6-8.2-24.6-16.4 0-9.225 10.25-15.375 34.85-24.6 33.825-11.275 47.15-27.675 47.15-53.3 0-23.575-16.4-45.1-46.125-51.25-3.075-1.025-4.1-3.075-4.1-5.125v-19.475c0-3.075-3.075-5.125-5.125-5.125h-18.45c-3.075 0-5.125 2.050-5.125 5.125v16.4c0 3.075-2.050 5.125-5.125 5.125-15.375 1.025-29.725 5.125-39.975 10.25-2.050 1.025-3.075 4.1-2.050 6.15l6.15 23.575c1.025 3.075 4.1 4.1 7.175 3.075 11.275-5.125 25.625-9.225 41-9.225 16.4 0 27.675 6.15 27.675 17.425 0 10.25-9.225 16.4-29.725 23.575zM279.825 197.125h-72.775c-5.125 0-9.225 4.1-9.225 10.25v19.475c0 5.125 4.1 9.225 9.225 9.225h72.775c5.125 0 9.225-4.1 9.225-9.225v-19.475c0-6.15-4.1-10.25-9.225-10.25zM512.5 197.125h-186.55c-5.125 0-9.225 4.1-9.225 10.25v19.475c0 5.125 4.1 9.225 9.225 9.225h186.55c5.125 0 9.225-4.1 9.225-9.225v-19.475c0-6.15-4.1-10.25-9.225-10.25zM697.001 197.125h-137.35c-5.125 0-10.25 4.1-10.25 10.25v19.475c0 5.125 4.1 9.225 10.25 9.225h137.35c5.125 0 10.25-4.1 10.25-9.225v-19.475c-1.025-6.15-5.125-10.25-10.25-10.25zM815.901 197.125h-71.75c-5.125 0-10.25 4.1-10.25 10.25v19.475c0 5.125 4.1 9.225 10.25 9.225h71.75c5.125 0 10.25-4.1 10.25-9.225v-19.475c0-6.15-5.125-10.25-10.25-10.25z" />
<glyph unicode="&#xe80e;" glyph-name="easy-deposit" d="M520.7 230.95c-136.325 0-248.050 111.725-248.050 249.075s110.7 248.050 248.050 248.050c137.35 0 249.075-110.7 249.075-248.050s-111.725-249.075-249.075-249.075zM520.7 692.2c-116.85 0-212.175-95.325-212.175-213.2s95.325-212.175 212.175-212.175 213.2 95.325 213.2 212.175c-1.025 117.875-96.35 213.2-213.2 213.2zM501.225 334.475v23.575c0 3.075-3.075 6.15-6.15 6.15-20.5 1.025-39.975 6.15-53.3 13.325-2.050 1.025-3.075 4.1-3.075 6.15l8.2 31.775c1.025 4.1 5.125 6.15 8.2 4.1 15.375-7.175 34.85-13.325 55.35-13.325 21.525 0 35.875 8.2 35.875 22.55s-12.3 23.575-39.975 32.8c-38.95 13.325-66.625 31.775-66.625 67.65 0 30.75 21.525 56.375 58.425 64.575 2.050 1.025 4.1 3.075 4.1 6.15v24.6c0 3.075 3.075 5.125 6.15 5.125h24.6c3.075 0 5.125-2.050 5.125-5.125v-21.525c0-3.075 3.075-6.15 6.15-6.15 18.45-1.025 32.8-5.125 43.050-9.225 3.075-1.025 4.1-4.1 4.1-7.175l-8.2-30.75c-1.025-3.075-4.1-5.125-7.175-4.1-10.25 4.1-25.625 10.25-47.15 10.25-24.6 0-31.775-10.25-31.775-20.5 0-12.3 12.3-20.5 44.075-31.775 44.075-15.375 62.525-35.875 62.525-69.7 0-31.775-21.525-58.425-61.5-67.65-2.050 0-4.1-3.075-4.1-5.125v-27.675c0-3.075-3.075-5.125-6.15-5.125h-24.6c-4.1 0-6.15 3.075-6.15 6.15zM948.126 111.025l-21.525 71.75c-13.325 34.85-98.4 61.5-166.050 61.5h-88.15c-42.025-27.675-97.375-45.1-151.7-45.1s-109.675 16.4-150.675 45.1h-105.575c-67.65 0-152.725-26.65-166.050-61.5l-21.525-71.75c-9.225-23.575 2.050-47.15 30.75-63.55 22.55-13.325 75.85-20.5 111.725-20.5h586.301c35.875 0 89.175 7.175 111.725 20.5 28.7 16.4 39.975 39.975 30.75 63.55zM768.751 131.525h-521.725c-10.25 0-23.575-2.050-23.575 14.35 0 14.35 13.325 13.325 23.575 13.325h522.75c10.25 0 23.575 0 23.575-13.325-1.025-13.325-14.35-14.35-24.6-14.35z" />
<glyph unicode="&#xe80f;" glyph-name="electronic-deposits" d="M893.801 545.625v-421.275c0-27.675-22.55-50.225-50.225-50.225h-661.126c-26.65 0-49.2 20.5-50.225 46.125 0 1.025 0 3.075 0 4.1v421.275c0 27.675 22.55 50.225 50.225 50.225h252.15v-35.875h-243.95c-12.3 0-22.55-10.25-22.55-22.55v-405.9c0-12.3 10.25-20.5 22.55-20.5h644.726c12.3 0 22.55 8.2 22.55 20.5v405.9c0 12.3-10.25 22.55-22.55 22.55h-241.9v35.875h252.15c26.65 0 48.175-22.55 48.175-50.225zM263.425 159.2h-51.25c-4.1 0-7.175 3.075-7.175 6.15v14.35c0 4.1 3.075 7.175 7.175 7.175h51.25c4.1 0 7.175-3.075 7.175-7.175v-14.35c0-3.075-3.075-6.15-7.175-6.15zM429.475 159.2h-133.25c-3.075 0-6.15 3.075-6.15 6.15v14.35c0 4.1 3.075 7.175 6.15 7.175h133.25c4.1 0 7.175-3.075 7.175-7.175v-14.35c0-3.075-3.075-6.15-7.175-6.15zM676.501 488.225h-112.75v173.225c0 11.275-8.2 19.475-19.475 19.475h-61.5c-11.275 0-19.475-8.2-19.475-19.475v-173.225h-112.75c-8.2 0-12.3-10.25-7.175-15.375l164-164c3.075-3.075 9.225-3.075 13.325 0l162.975 164c6.15 5.125 1.025 15.375-7.175 15.375z" />
<glyph unicode="&#xe810;" glyph-name="enhanced-account" d="M378.225-99.101c-1.025 0-2.050 0-3.075 0l-59.45 21.525c-3.075 1.025-5.125 5.125-5.125 8.2l1.025 114.8c0 8.2-3.075 16.4-10.25 22.55l-48.175 41c-5.125 4.1-12.3 6.15-19.475 6.15-2.050 0-3.075 0-5.125 0l-112.75-21.525c0 0-1.025 0-1.025 0-3.075 0-6.15 2.050-8.2 4.1l-31.775 55.35c-2.050 3.075-1.025 7.175 1.025 9.225l74.825 87.125c6.15 6.15 8.2 15.375 7.175 23.575l-11.275 62.525c-2.050 9.225-7.175 16.4-14.35 20.5l-100.45 56.375c-3.075 2.050-5.125 5.125-4.1 9.225l11.275 62.525c0 3.075 3.075 6.15 7.175 7.175l112.75 18.45c8.2 1.025 16.4 6.15 20.5 14.35l31.775 54.325c4.1 8.2 5.125 17.425 2.050 25.625l-41 106.6c-1.025 4.1 0 7.175 3.075 10.25l48.175 41c2.050 1.025 4.1 2.050 6.15 2.050 1.025 0 3.075-1.025 4.1-1.025l98.4-58.425c5.125-3.075 10.25-4.1 15.375-4.1 3.075 0 6.15 0 9.225 1.025l60.475 21.525c8.2 3.075 14.35 10.25 17.425 18.45l37.925 107.625c1.025 4.1 4.1 6.15 8.2 6.15h63.55c3.075 0 7.175-3.075 8.2-6.15l37.925-107.625c3.075-8.2 9.225-15.375 17.425-18.45l59.45-21.525c3.075-1.025 7.175-1.025 10.25-1.025 5.125 0 10.25 1.025 14.35 4.1l98.4 58.425c2.050 1.025 3.075 1.025 5.125 1.025s4.1-1.025 5.125-2.050l49.2-41c2.050-3.075 3.075-6.15 2.050-10.25l-39.975-106.6c-3.075-8.2-3.075-17.425 2.050-25.625l31.775-55.35c4.1-7.175 11.275-12.3 20.5-14.35l112.75-18.45c3.075 0 6.15-3.075 7.175-7.175l11.275-62.525c0-3.075-1.025-7.175-4.1-9.225l-100.45-55.35c-7.175-4.1-12.3-12.3-14.35-20.5l-11.275-62.525c-1.025-9.225 1.025-17.425 7.175-24.6l73.8-86.1c3.075-3.075 3.075-7.175 1.025-10.25l-31.775-54.325c-1.025-3.075-4.1-4.1-7.175-4.1-1.025 0-1.025 0-2.050 0l-111.725 20.5c-2.050 1.025-4.1 1.025-6.15 1.025-6.15 0-13.325-3.075-18.45-7.175l-49.2-41c-6.15-5.125-10.25-13.325-10.25-22.55l2.050-113.775c0-4.1-2.050-7.175-6.15-8.2l-59.45-21.525c-1.025-1.025-2.050-1.025-3.075-1.025-2.050 0-5.125 1.025-6.15 3.075l-72.775 89.175c-5.125 6.15-13.325 10.25-22.55 10.25h-63.55c-8.2 0-16.4-4.1-22.55-10.25l-71.75-89.175c-3.075-1.025-5.125-2.050-8.2-2.050zM509.425 671.7c-26.65 0-53.3-4.1-79.95-10.25-105.575-27.675-187.575-109.675-214.225-215.25-24.6-94.3-5.125-191.675 53.3-266.5s146.575-117.875 240.875-117.875c26.65 0 54.325 3.075 79.95 10.25 105.575 26.65 187.575 108.65 215.25 214.225 23.575 95.325 4.1 192.7-54.325 267.525-57.4 74.825-145.55 117.875-240.875 117.875zM289.050 346.775l1.025 12.3v9.225l2.050 13.325 1.025 8.2 2.050 5.125c2.050 6.15 3.075 12.3 6.15 19.475 3.075 8.2 5.125 15.375 9.225 21.525 13.325 26.65 32.8 50.225 55.35 68.675l-49.2 51.25c-28.7-28.7-50.225-62.525-63.55-99.425s-17.425-75.85-14.35-113.775c1.025-15.375 4.1-30.75 7.175-45.1l44.075 11.275c-1.025 12.3-2.050 25.625-1.025 37.925zM348.5 184.825c-17.425 20.5-33.825 45.1-44.075 72.775-2.050 5.125-4.1 10.25-6.15 16.4l-39.975-10.25c3.075-8.2 7.175-16.4 11.275-23.575 15.375-30.75 36.9-56.375 58.425-76.875 16.4-14.35 33.825-26.65 50.225-35.875l11.275 22.55c-14.35 9.225-27.675 21.525-41 34.85zM446.9 542.55c6.15 2.050 13.325 2.050 19.475 3.075s14.35 1.025 20.5 1.025c6.15 1.025 12.3-1.025 18.45-1.025h4.1c1.025 0 1.025 0 1.025 0h-5.125l8.2-1.025 13.325-2.050c2.050 0 5.125-1.025 6.15-1.025l3.075-1.025c2.050-1.025 4.1-2.050 6.15-2.050s4.1-2.050 8.2-3.075l8.2-3.075c2.050-1.025 5.125-2.050 7.175-3.075l44.075 88.15c-24.6 9.225-51.25 15.375-78.925 18.45-36.9 3.075-75.85-2.050-113.775-15.375-26.65-9.225-51.25-23.575-73.8-41l52.275-55.35c17.425 9.225 33.825 15.375 51.25 18.45zM628.326 472.85c10.25-15.375 16.4-29.725 20.5-44.075l130.175-18.45-2.050 9.225c-2.050 8.2-4.1 17.425-7.175 27.675-4.1 9.225-6.15 21.525-13.325 31.775-9.225 22.55-25.625 45.1-44.075 67.65-19.475 20.5-44.075 38.95-70.725 54.325l-46.125-92.25c13.325-11.275 24.6-23.575 32.8-35.875zM411.025 112.050c17.425-6.15 34.85-12.3 50.225-15.375 28.7-6.15 49.2-6.15 49.2-6.15l1.025 13.325c0 0-50.225 7.175-91.225 27.675l-9.225-19.475zM508.4 428.775c-35.875 0-64.575-28.7-64.575-65.6 0-35.875 28.7-64.575 64.575-64.575 18.45 0 33.825 7.175 46.125 18.45l224.475 46.125-224.475 45.1c-12.3 12.3-27.675 20.5-46.125 20.5z" />
<glyph unicode="&#xe811;" glyph-name="error" d="M910.201 78.225l-360.8 640.626c-16.4 28.7-58.425 28.7-73.8 0l-360.8-640.626c-16.4-27.675 4.1-63.55 36.9-63.55h721.601c32.8 0 53.3 35.875 36.9 63.55zM541.201 110c-8.2-7.175-17.425-11.275-28.7-11.275s-21.525 4.1-29.725 11.275c-8.2 7.175-13.325 17.425-13.325 30.75 0 11.275 4.1 21.525 12.3 28.7 8.2 8.2 18.45 12.3 29.725 12.3s21.525-4.1 29.725-12.3c8.2-8.2 12.3-17.425 12.3-28.7 0-12.3-4.1-22.55-12.3-30.75zM551.451 419.55l-11.275-137.35c-2.050-16.4-4.1-28.7-8.2-37.925s-11.275-13.325-21.525-13.325c-10.25 0-16.4 4.1-20.5 13.325-4.1 8.2-7.175 21.525-8.2 37.925l-9.225 133.25c-1.025 26.65-2.050 45.1-2.050 56.375 0 15.375 4.1 27.675 12.3 35.875s18.45 12.3 31.775 12.3c15.375 0 26.65-5.125 31.775-16.4s8.2-26.65 8.2-47.15c-1.025-12.3-1.025-24.6-3.075-36.9z" />
<glyph unicode="&#xe812;" glyph-name="essential-account" d="M794.376 360.1c-22.55 42.025-23.575 41-52.275 85.075-33.825 50.225-79.95 114.8-114.8 178.35-55.35 94.3-95.325 185.525-109.675 218.325-2.050 5.125-8.2 5.125-10.25 0-14.35-32.8-55.35-124.025-109.675-218.325-36.9-63.55-82-128.125-114.8-178.35-28.7-42.025-31.775-42.025-52.275-83.025-21.525-39.975-31.775-87.125-31.775-138.375 0-173.225 139.4-314.675 313.65-314.675s314.675 140.425 314.675 314.675c-2.050 48.175-12.3 95.325-32.8 136.325zM515.575-25.3c2.050 0 7.175-1.025 6.15-7.175s-8.2-5.125-9.225-5.125c-133.25 6.15-215.25 94.3-229.6 214.225-9.225 70.725 4.1 121.975 17.425 156.825 18.45 48.175 175.275 314.675 190.65 343.375 4.1 8.2 7.175 12.3 13.325 10.25s5.125-6.15 1.025-15.375c-24.6-58.425-112.75-260.35-125.050-289.050-53.3-133.25-68.675-360.8 135.3-407.95z" />
<glyph unicode="&#xe813;" glyph-name="external_link" d="M846.651 729.1h-169.125c-6.15 0-9.225-8.2-4.1-12.3l58.425-59.45-271.625-271.625c-8.2-7.175-8.2-19.475 0-27.675l24.6-24.6c8.2-8.2 20.5-8.2 27.675 0l271.625 271.625 59.45-58.425c4.1-4.1 13.325-1.025 13.325 4.1v169.125c-1.025 4.1-6.15 9.225-10.25 9.225zM712.376 114.1c0-6.15-17.425-30.75-32.8-30.75h-427.425c-12.3 0-27.675 21.525-27.675 29.725v436.65c0 21.525 22.55 30.75 27.675 30.75h311.6l61.5 61.5h-383.35c-44.075 0-73.8-36.9-73.8-82v-457.15c0-48.175 36.9-75.85 73.8-75.85h446.9c47.15 0 75.85 37.925 76.875 75.85l2.050 395.65-55.35-55.35v-329.025z" />
<glyph unicode="&#xe814;" glyph-name="online-statements" d="M435.625 464.65v9.225c0 1.025-1.025 3.075-3.075 3.075-8.2 0-16.4 2.050-21.525 5.125-1.025 1.025-2.050 2.050-1.025 4.1l3.075 12.3c0 2.050 2.050 3.075 4.1 2.050 6.15-3.075 14.35-5.125 22.55-5.125s14.35 3.075 14.35 9.225c0 6.15-5.125 10.25-16.4 14.35-16.4 5.125-27.675 13.325-27.675 28.7 0 13.325 8.2 23.575 23.575 26.65 2.050 1.025 3.075 2.050 3.075 3.075v9.225c0 2.050 1.025 3.075 3.075 3.075h9.225c1.025 0 3.075-1.025 3.075-3.075v-7.175c0-2.050 1.025-3.075 3.075-3.075 7.175-1.025 12.3-2.050 17.425-4.1 1.025-1.025 2.050-2.050 2.050-4.1l-3.075-11.275c-1.025-2.050-3.075-3.075-4.1-2.050-4.1 1.025-11.275 4.1-19.475 4.1-10.25 0-13.325-5.125-13.325-9.225 0-5.125 5.125-8.2 18.45-13.325 18.45-6.15 26.65-15.375 26.65-28.7s-9.225-24.6-25.625-28.7c-2.050-1.025-3.075-2.050-3.075-3.075v-10.25c0-2.050-1.025-3.075-3.075-3.075h-9.225c-1.025-1.025-3.075 0-3.075 2.050zM657.026 275.025h-288.025c-4.1 0-7.175 3.075-7.175 7.175v375.15c0 4.1 3.075 7.175 7.175 7.175h288.025c3.075 0 6.15-3.075 6.15-7.175v-375.15c0-4.1-3.075-7.175-6.15-7.175zM386.425 293.475h252.15c4.1 0 7.175 3.075 7.175 6.15v340.3c0 3.075-3.075 6.15-7.175 6.15h-252.15c-3.075 0-6.15-3.075-6.15-6.15v-340.3c-1.025-3.075 3.075-6.15 6.15-6.15zM604.751 574.325h-93.275c-4.1 0-7.175 3.075-7.175 7.175s3.075 8.2 7.175 8.2h93.275c4.1 0 8.2-4.1 8.2-8.2s-4.1-7.175-8.2-7.175zM604.751 517.95h-93.275c-4.1 0-7.175 3.075-7.175 7.175s3.075 8.2 7.175 8.2h93.275c4.1 0 8.2-4.1 8.2-8.2s-4.1-7.175-8.2-7.175zM604.751 461.575h-93.275c-4.1 0-7.175 3.075-7.175 7.175s3.075 8.2 7.175 8.2h93.275c4.1 0 8.2-4.1 8.2-8.2s-4.1-7.175-8.2-7.175zM604.751 404.175h-186.55c-4.1 0-8.2 4.1-8.2 8.2s4.1 7.175 8.2 7.175h186.55c4.1 0 8.2-3.075 8.2-7.175s-4.1-8.2-8.2-8.2zM604.751 347.8h-186.55c-4.1 0-8.2 4.1-8.2 8.2s4.1 7.175 8.2 7.175h186.55c4.1 0 8.2-3.075 8.2-7.175s-4.1-8.2-8.2-8.2zM512.5 119.225h-52.275c-5.125 0-8.2-3.075-8.2-7.175v-49.2c0 0 0-20.5-14.35-20.5h-73.8c-1.025 0-2.050-1.025-2.050-1.025-3.075-2.050-8.2-6.15-11.275-11.275-2.050-2.050 0-6.15 3.075-6.15h317.75c4.1 0 6.15 4.1 4.1 6.15-4.1 5.125-9.225 9.225-11.275 11.275-1.025 0-2.050 1.025-3.075 1.025h-72.775c-14.35 0-15.375 20.5-15.375 20.5v49.2c0 4.1-3.075 7.175-7.175 7.175h-53.3zM92.25 525.125v-346.45c0-15.375 13.325-27.675 28.7-27.675h783.101c15.375 0 28.7 12.3 28.7 27.675v524.801c0 15.375-13.325 28.7-28.7 28.7h-783.101c-15.375 0-28.7-13.325-28.7-28.7v-178.35zM683.676 242.225h-533.001c-12.3 0-22.55 10.25-22.55 22.55v410c0 12.3 10.25 21.525 22.55 21.525h725.701c12.3 0 21.525-9.225 21.525-21.525v-410c0-12.3-9.225-22.55-21.525-22.55h-192.7z" />
<glyph unicode="&#xe815;" glyph-name="online-mobile-banking" d="M962.476 532.3h-256.25c-12.3 0-21.525-10.25-21.525-21.525v-506.35c0-12.3 9.225-21.525 21.525-21.525h256.25c12.3 0 21.525 9.225 21.525 21.525v506.35c1.025 11.275-9.225 21.525-21.525 21.525zM839.476 10.575c-16.4-4.1-30.75 10.25-26.65 26.65 2.050 8.2 8.2 15.375 16.4 16.4 15.375 4.1 29.725-10.25 26.65-26.65-2.050-8.2-8.2-15.375-16.4-16.4zM936.851 87.45h-203.975c-8.2 0-14.35 6.15-14.35 13.325v379.25c0 7.175 6.15 13.325 14.35 13.325h203.975c7.175 0 13.325-6.15 13.325-13.325v-379.25c0-7.175-6.15-13.325-13.325-13.325zM476.625 137.675h-55.35c-4.1 0-8.2-4.1-8.2-8.2v-51.25c0 0 0-20.5-15.375-20.5h-75.85c-1.025 0-2.050-1.025-2.050-1.025-3.075-2.050-8.2-7.175-11.275-11.275-2.050-3.075 0-7.175 3.075-7.175h330.050c3.075 0 5.125 4.1 3.075 7.175-3.075 4.1-9.225 9.225-11.275 11.275-1.025 0-1.025 1.025-2.050 1.025h-75.85c-15.375 0-15.375 20.5-15.375 20.5v51.25c0 4.1-4.1 8.2-8.2 8.2h-55.35zM912.251 557.925v185.525c0 15.375-13.325 28.7-29.725 28.7h-811.801c-16.4 0-29.725-13.325-29.725-28.7v-544.276c0-16.4 13.325-29.725 29.725-29.725h583.226v95.325h-546.326c-13.325 0-23.575 10.25-23.575 23.575v418.2c0 12.3 10.25 22.55 23.575 22.55h738.001c12.3 0 22.55-10.25 22.55-22.55v-148.625h44.075z" />
<glyph unicode="&#xe816;" glyph-name="online-bill-pay" d="M616.026 322.175l-46.125 46.125c-2.050 2.050-5.125 1.025-5.125-2.050v-31.775h-142.475c-7.175 0-12.3-5.125-12.3-12.3v-3.075c0-7.175 5.125-13.325 12.3-13.325h142.475v-31.775c0-2.050 3.075-3.075 5.125-2.050l46.125 46.125c1.025 2.050 1.025 3.075 0 4.1zM496.1 405.2v19.475c0 3.075-2.050 5.125-5.125 5.125-16.4 2.050-32.8 6.15-44.075 11.275-2.050 1.025-3.075 4.1-3.075 7.175l7.175 25.625c1.025 3.075 4.1 5.125 7.175 3.075 13.325-6.15 28.7-10.25 46.125-10.25 18.45 0 30.75 7.175 30.75 19.475 0 11.275-10.25 19.475-33.825 27.675-33.825 11.275-56.375 26.65-56.375 57.4 0 26.65 17.425 48.175 48.175 55.35 3.075 1.025 5.125 3.075 5.125 6.15v19.475c0 3.075 2.050 6.15 5.125 6.15h19.475c3.075 0 6.15-3.075 6.15-6.15v-16.4c0-3.075 2.050-6.15 5.125-6.15 15.375-1.025 26.65-4.1 35.875-8.2 2.050-1.025 4.1-4.1 3.075-6.15l-6.15-24.6c-1.025-4.1-5.125-5.125-8.2-4.1-8.2 4.1-21.525 8.2-38.95 8.2-20.5 0-27.675-8.2-27.675-17.425 0-10.25 11.275-17.425 37.925-27.675 37.925-13.325 53.3-30.75 53.3-58.425s-18.45-50.225-52.275-57.4c-2.050-1.025-4.1-3.075-4.1-6.15v-21.525c0-3.075-3.075-6.15-6.15-6.15h-19.475c-2.050 0-5.125 2.050-5.125 5.125zM512.5 119.225h-52.275c-5.125 0-8.2-3.075-8.2-7.175v-49.2c0 0 0-20.5-14.35-20.5h-73.8c-1.025 0-2.050-1.025-2.050-1.025-3.075-2.050-8.2-6.15-11.275-11.275-2.050-2.050 0-6.15 3.075-6.15h317.75c4.1 0 6.15 4.1 4.1 6.15-4.1 5.125-9.225 9.225-11.275 11.275-1.025 0-2.050 1.025-3.075 1.025h-72.775c-14.35 0-15.375 20.5-15.375 20.5v49.2c0 4.1-3.075 7.175-7.175 7.175h-53.3zM92.25 525.125v-346.45c0-15.375 13.325-28.7 28.7-28.7h783.101c15.375 0 28.7 13.325 28.7 28.7v524.801c0 15.375-13.325 27.675-28.7 27.675h-783.101c-15.375 0-28.7-12.3-28.7-27.675v-178.35zM683.676 242.225h-533.001c-12.3 0-22.55 10.25-22.55 22.55v410c0 12.3 10.25 21.525 22.55 21.525h725.701c12.3 0 21.525-9.225 21.525-21.525v-410c0-12.3-9.225-22.55-21.525-22.55h-192.7z" />
<glyph unicode="&#xe817;" glyph-name="online-banking" d="M512.5 119.225h-52.275c-5.125 0-8.2-3.075-8.2-7.175v-49.2c0 0 0-20.5-14.35-20.5h-73.8c-1.025 0-2.050-1.025-2.050-1.025-3.075-2.050-8.2-6.15-11.275-11.275-2.050-2.050 0-6.15 3.075-6.15h317.75c4.1 0 6.15 4.1 4.1 6.15-4.1 5.125-9.225 9.225-11.275 11.275-1.025 0-2.050 1.025-3.075 1.025h-72.775c-14.35 0-15.375 20.5-15.375 20.5v49.2c0 4.1-3.075 7.175-7.175 7.175h-53.3zM92.25 525.125v-346.45c0-15.375 13.325-27.675 28.7-27.675h783.101c15.375 0 28.7 12.3 28.7 27.675v524.801c0 15.375-13.325 28.7-28.7 28.7h-783.101c-15.375 0-28.7-13.325-28.7-28.7v-178.35zM683.676 242.225h-533.001c-12.3 0-22.55 10.25-22.55 22.55v410c0 12.3 10.25 21.525 22.55 21.525h725.701c12.3 0 21.525-9.225 21.525-21.525v-410c0-12.3-9.225-22.55-21.525-22.55h-192.7zM488.925 289.375v31.775c0 2.050-2.050 5.125-5.125 5.125-25.625 1.025-50.225 8.2-66.625 16.4-2.050 1.025-3.075 4.1-2.050 6.15l10.25 42.025c1.025 3.075 5.125 5.125 7.175 3.075 18.45-9.225 42.025-16.4 68.675-16.4 24.6 0 42.025 10.25 42.025 27.675s-14.35 27.675-47.15 38.95c-47.15 15.375-79.95 37.925-79.95 80.975 0 37.925 26.65 68.675 70.725 78.925 3.075 0 4.1 2.050 4.1 5.125v32.8c0 3.075 3.075 5.125 5.125 5.125h32.8c3.075 0 5.125-3.075 5.125-5.125v-28.7c0-3.075 2.050-5.125 5.125-5.125 24.6-2.050 42.025-7.175 55.35-12.3 3.075-1.025 4.1-4.1 3.075-6.15l-10.25-39.975c-1.025-3.075-4.1-5.125-7.175-4.1-12.3 5.125-30.75 13.325-58.425 13.325-28.7 0-37.925-12.3-37.925-25.625 0-14.35 15.375-23.575 53.3-37.925 52.275-18.45 73.8-43.050 73.8-83.025 0-38.95-26.65-71.75-74.825-82-2.050 0-4.1-2.050-4.1-5.125v-35.875c0-3.075-2.050-5.125-5.125-5.125h-32.8c-2.050-1.025-5.125 2.050-5.125 5.125z" />
<glyph unicode="&#xe818;" glyph-name="mortgages" d="M951.201 501.55c0 5.125-2.050 9.225-6.15 11.275l-106.6 62.525c-4.1 2.050-6.15 6.15-6.15 10.25v119.925c0 7.175-6.15 12.3-13.325 12.3h-55.35c-7.175 0-12.3-5.125-12.3-12.3v-57.4c0-10.25-11.275-16.4-19.475-11.275l-215.25 126.075c-4.1 2.050-8.2 2.050-12.3 0l-426.4-251.125c-4.1-2.050-6.15-7.175-6.15-11.275l2.050-497.125c0-7.175 6.15-13.325 13.325-13.325h323.9c7.175 0 13.325 6.15 13.325 13.325v367.975c0 7.175 5.125 13.325 12.3 13.325h152.725c7.175 0 12.3-6.15 12.3-13.325v-366.95c0-7.175 6.15-13.325 13.325-13.325h324.925c7.175 0 13.325 6.15 13.325 13.325l-2.050 497.125zM308.525 284.25v-161.95h-116.85v174.25h116.85v-12.3zM831.276 284.25v-161.95h-116.85v174.25h116.85v-12.3z" />
<glyph unicode="&#xe819;" glyph-name="mobile-bill-pay" d="M666.251 209.425l-68.675 68.675c-3.075 3.075-7.175 1.025-7.175-2.050v-48.175h-214.225c-10.25 0-19.475-8.2-19.475-19.475v-4.1c0-10.25 9.225-19.475 19.475-19.475h214.225v-47.15c0-4.1 4.1-5.125 7.175-3.075l68.675 69.7c2.050 1.025 2.050 3.075 0 5.125zM486.875 333.45v29.725c0 4.1-3.075 8.2-7.175 8.2-25.625 2.050-50.225 9.225-67.65 17.425-3.075 1.025-5.125 5.125-4.1 9.225l10.25 38.95c1.025 5.125 7.175 7.175 11.275 5.125 19.475-9.225 44.075-16.4 70.725-16.4s45.1 10.25 45.1 29.725c0 17.425-15.375 28.7-50.225 41-50.225 17.425-85.075 41-85.075 87.125 0 39.975 26.65 71.75 73.8 83.025 3.075 1.025 6.15 4.1 6.15 7.175v30.75c0 5.125 3.075 8.2 8.2 8.2h29.725c5.125 0 8.2-3.075 8.2-8.2v-25.625c0-4.1 3.075-8.2 7.175-8.2 24.6-2.050 42.025-7.175 55.35-12.3 4.1-2.050 6.15-6.15 5.125-9.225l-10.25-37.925c-1.025-5.125-6.15-7.175-10.25-6.15-13.325 6.15-32.8 12.3-60.475 12.3-30.75 0-41-13.325-41-26.65 0-15.375 16.4-25.625 57.4-41 56.375-19.475 78.925-46.125 78.925-88.15 0-41-27.675-75.85-77.9-87.125-3.075-1.025-6.15-4.1-6.15-7.175v-33.825c0-5.125-4.1-8.2-8.2-8.2h-30.75c-4.1 0-8.2 4.1-8.2 8.2zM722.626 825.45h-419.225c-19.475 0-35.875-16.4-35.875-35.875v-824.101c0-19.475 16.4-35.875 35.875-35.875h419.225c19.475 0 34.85 16.4 34.85 35.875v824.101c1.025 19.475-15.375 35.875-34.85 35.875zM521.725-24.275c-26.65-6.15-49.2 16.4-43.050 43.050 3.075 13.325 13.325 23.575 26.65 26.65 25.625 5.125 49.2-17.425 43.050-43.050-3.075-13.325-14.35-24.6-26.65-26.65zM681.626 90.525h-337.225c-13.325 0-23.575 10.25-23.575 23.575v635.501c0 12.3 10.25 23.575 23.575 23.575h337.225c13.325 0 23.575-10.25 23.575-23.575v-635.501c0-13.325-10.25-23.575-23.575-23.575z" />
<glyph unicode="&#xe81a;" glyph-name="mobile-banking" d="M487.9 236.075v34.85c0 3.075-3.075 5.125-5.125 5.125-27.675 2.050-54.325 9.225-71.75 18.45-2.050 1.025-3.075 4.1-3.075 6.15l11.275 45.1c1.025 3.075 5.125 5.125 8.2 3.075 19.475-9.225 45.1-17.425 72.775-17.425 26.65 0 45.1 10.25 45.1 28.7s-15.375 29.725-50.225 42.025c-50.225 16.4-85.075 41-85.075 86.1 0 41 27.675 72.775 75.85 84.050 2.050 0 4.1 3.075 4.1 5.125v34.85c0 3.075 3.075 6.15 6.15 6.15h34.85c3.075 0 6.15-3.075 6.15-6.15v-30.75c0-3.075 2.050-5.125 5.125-5.125 25.625-2.050 44.075-7.175 58.425-13.325 3.075-1.025 4.1-4.1 3.075-7.175l-10.25-42.025c-1.025-3.075-5.125-5.125-8.2-4.1-12.3 6.15-32.8 13.325-62.525 13.325-30.75 0-41-13.325-41-26.65 0-15.375 16.4-25.625 57.4-41 56.375-19.475 78.925-46.125 78.925-88.15 0-41-27.675-76.875-79.95-87.125-2.050-1.025-4.1-3.075-4.1-6.15v-37.925c0-3.075-3.075-5.125-6.15-5.125h-34.85c-3.075 0-5.125 2.050-5.125 5.125zM691.876 759.85h-358.75c-16.4 0-29.725-13.325-29.725-29.725v-705.201c0-16.4 13.325-29.725 29.725-29.725h358.75c16.4 0 29.725 13.325 29.725 29.725v705.201c0 16.4-13.325 29.725-29.725 29.725zM519.675 34.15c-22.55-5.125-42.025 14.35-36.9 36.9 3.075 11.275 12.3 20.5 23.575 22.55 22.55 5.125 42.025-14.35 36.9-36.9-3.075-11.275-12.3-20.5-23.575-22.55zM656.001 132.55h-287c-10.25 0-19.475 9.225-19.475 20.5v541.201c0 11.275 8.2 20.5 19.475 20.5h287c11.275 0 20.5-9.225 20.5-20.5v-541.201c0-11.275-9.225-20.5-20.5-20.5z" />
<glyph unicode="&#xe81b;" glyph-name="mobile-advantage" d="M578.101 433.9h-44.075v52.275c0 6.15-6.15 11.275-11.275 11.275h-18.45c-7.175 0-13.325-6.15-13.325-13.325v-50.225h-43.050c-7.175 0-14.35-6.15-14.35-14.35v-14.35c0-8.2 7.175-14.35 14.35-14.35h43.050v-49.2c0-7.175 6.15-14.35 14.35-14.35h14.35c8.2 0 14.35 7.175 14.35 14.35v49.2h46.125c6.15 0 11.275 5.125 11.275 10.25v19.475c0 7.175-6.15 13.325-13.325 13.325zM641.651 652.225h-257.275c-12.3 0-21.525-9.225-21.525-21.525v-506.35c0-11.275 9.225-21.525 21.525-21.525h257.275c11.275 0 21.525 10.25 21.525 21.525v506.35c0 12.3-10.25 21.525-21.525 21.525zM517.625 130.5c-15.375-3.075-29.725 10.25-26.65 26.65 2.050 8.2 8.2 15.375 16.4 16.4 16.4 4.1 30.75-10.25 26.65-26.65-2.050-8.2-8.2-14.35-16.4-16.4zM615.001 208.4h-203.975c-8.2 0-14.35 6.15-14.35 13.325v378.225c0 8.2 6.15 14.35 14.35 14.35h203.975c7.175 0 13.325-6.15 13.325-14.35v-378.225c0-8.2-6.15-13.325-13.325-13.325z" />
<glyph unicode="&#xe81c;" glyph-name="message" d="M496.731 264.512l-475.706 323.27c-9.199 5.256-21.026 0-21.026-11.827v-475.706c0-17.084 13.141-31.539 31.539-31.539h961.923c17.084 0 31.539 13.141 31.539 31.539v475.706c0 10.513-11.827 17.084-21.026 10.513l-474.391-321.955c-10.513-7.885-23.654-7.885-32.853 0zM998.719 686.339h-972.436c-18.397 0-21.026-9.199-21.026-19.711v0c0-2.629 1.314-10.513 2.629-11.827l487.532-328.526c10.513-6.57 22.34-6.57 32.853 0l486.219 328.526c1.314 1.314 2.629 9.199 2.629 10.513v1.314c1.314 11.827-3.942 19.711-18.397 19.711z" />
<glyph unicode="&#xe81d;" glyph-name="merchant-services" d="M60.475 561h72.775c7.175 0 13.325-5.125 13.325-12.3v-208.075c0-7.175-6.15-12.3-13.325-12.3h-72.775c-6.15 0-11.275 5.125-11.275 11.275v211.15c0 5.125 5.125 10.25 11.275 10.25zM549.401 411.35l152.725 3.075c34.85-10.25 36.9-26.65 39.975-50.225 0-5.125-2.050-10.25-1.025-15.375h221.4v64.575h-260.35v1.025zM975.801 441.075v-237.8c0-16.4-13.325-29.725-29.725-29.725h-380.275c-15.375 0-28.7 11.275-29.725 26.65 0 1.025 0 2.050 0 2.050v97.375c6.15 0 19.475 0 25.625 0v-90.2c0-7.175 5.125-12.3 13.325-12.3h361.825c7.175 0 13.325 5.125 13.325 12.3v222.425c0 7.175-5.125 13.325-13.325 13.325h-361.825c-7.175 0-13.325-1.025-13.325-8.2v-2.050l-25.625 1.025v5.125c0 15.375 13.325 28.7 29.725 28.7h381.3c15.375 1.025 28.7-12.3 28.7-28.7zM512.5 462.6c0 15.375 18.45 28.7 32.8 28.7h117.875c-13.325 12.3-30.75 25.625-35.875 30.75-21.525 21.525-44.075 48.175-73.8 56.375-43.050 12.3-102.5-12.3-143.5-20.5-67.65-13.325-147.6-34.85-222.425-29.725l-19.475 2.050v-182.45c35.875-8.2 22.55-7.175 53.3-19.475 53.3-20.5 141.45-24.6 183.475-22.55 22.55 2.050 35.875 5.125 39.975 6.15 30.75 7.175 64.575 13.325 100.45 14.35v0c19.475 0 38.95-2.050 59.45-6.15 33.825-8.2 83.025-2.050 101.475 17.425 7.175 7.175 9.225 21.525 6.15 34.85-8.2 30.75-61.5 37.925-96.35 38.95-3.075 0-7.175 0-10.25 1.025-21.525 1.025-42.025-2.050-62.525 1.025-1.025 0-2.050 0-3.075 0-5.125 1.025-9.225 2.050-14.35 3.075-1.025 0-3.075 0-5.125 1.025-5.125 1.025-10.25 2.050-15.375 3.075-2.050 1.025-3.075 1.025-4.1 1.025-5.125 1.025-9.225 3.075-14.35 4.1-1.025 0-2.050 0-3.075 1.025-6.15 1.025-11.275 1.025-16.4 3.075-2.050 0-3.075 0-4.1 1.025-6.15 2.050-37.925 3.075-37.925 8.2s49.2 7.175 87.125 3.075v20.5z" />
<glyph unicode="&#xe81e;" glyph-name="location" d="M512.5 797.775c-168.1 0-308.525-141.45-308.525-308.525 0-227.55 308.525-531.976 308.525-531.976s308.525 303.4 308.525 531.976c0 167.075-140.425 308.525-308.525 308.525zM512.5 341.65c-84.050 0-151.7 67.65-151.7 151.7s67.65 151.7 151.7 151.7 151.7-67.65 151.7-150.675c0-83.025-67.65-152.725-151.7-152.725z" />
<glyph unicode="&#xe81f;" glyph-name="international_banking" d="M512.5 691.175c173.225 0 313.65-140.425 313.65-313.65s-140.425-313.65-313.65-313.65-313.65 141.45-313.65 313.65 141.45 313.65 313.65 313.65M512.5 727.050c-192.7 0-349.525-155.8-349.525-349.525s156.825-349.525 349.525-349.525 349.525 156.825 349.525 349.525-156.825 349.525-349.525 349.525v0zM512.5 691.175c34.85 0 69.7-29.725 97.375-83.025 31.775-60.475 50.225-142.475 50.225-230.625s-17.425-169.125-50.225-230.625c-27.675-52.275-62.525-83.025-97.375-83.025s-69.7 30.75-97.375 83.025c-31.775 61.5-49.2 143.5-49.2 230.625s17.425 170.15 49.2 230.625c27.675 53.3 63.55 83.025 97.375 83.025M512.5 727.050c-100.45 0-182.45-155.8-182.45-349.525s82-349.525 182.45-349.525 183.475 156.825 183.475 349.525-82 349.525-183.475 349.525v0zM512.5 479c89.175 0 172.2-13.325 233.7-37.925 59.45-22.55 79.95-48.175 79.95-63.55s-21.525-39.975-79.95-63.55c-61.5-23.575-144.525-37.925-233.7-37.925s-172.2 13.325-233.7 37.925c-58.425 23.575-78.925 49.2-78.925 63.55s20.5 41 78.925 63.55c61.5 24.6 144.525 37.925 233.7 37.925M512.5 514.875c-192.7 0-349.525-61.5-349.525-137.35s156.825-137.35 349.525-137.35 349.525 61.5 349.525 137.35-156.825 137.35-349.525 137.35v0z" />
<glyph unicode="&#xe820;" glyph-name="instant-alerts" d="M842.551 108.975c3.075 1.025 4.1 4.1 4.1 7.175-1.025 17.425-8.2 76.875-28.7 107.625-24.6 36.9-71.75 36.9-109.675 208.075-34.85 157.85-62.525 239.85-171.175 250.1-3.075 1.025-3.075 4.1-1.025 6.15 15.375 8.2 26.65 24.6 26.65 43.050 0 26.65-22.55 48.175-49.2 48.175s-48.175-21.525-48.175-48.175c0-18.45 10.25-34.85 25.625-43.050 2.050-1.025 2.050-5.125-1.025-5.125-113.775-9.225-141.45-91.225-175.275-252.15-35.875-171.175-83.025-171.175-107.625-208.075-20.5-31.775-26.65-91.225-28.7-108.65 0-3.075 2.050-5.125 5.125-6.15 17.425-6.15 93.275-24.6 328-23.575 233.7 0 312.625 19.475 331.075 24.6zM492 727.050c-3.075 14.35 10.25 26.65 24.6 24.6 9.225-1.025 17.425-8.2 18.45-17.425 2.050-15.375-10.25-27.675-25.625-25.625-9.225 2.050-16.4 9.225-17.425 18.45zM509.425 55.675c-21.525 0-42.025 0-60.475 0-3.075 0-6.15-3.075-6.15-5.125 0-1.025 0-2.050 0-3.075 0-39.975 32.8-71.75 71.75-71.75s71.75 31.775 71.75 71.75c0 1.025 0 2.050 0 3.075 0 3.075-2.050 5.125-5.125 5.125-22.55 0-46.125 0-71.75 0z" />
<glyph unicode="&#xe821;" glyph-name="identity-theft-protection" d="M854.851 258.625h-15.375c-2.050 0-4.1 2.050-4.1 4.1v57.4c0 62.525-49.2 115.825-111.725 117.875-64.575 2.050-118.9-50.225-118.9-114.8v-60.475c0-2.050-2.050-4.1-4.1-4.1h-14.35c-8.2 0-14.35-6.15-14.35-14.35v-220.375c0-8.2 6.15-14.35 14.35-14.35h268.55c7.175 0 13.325 6.15 13.325 14.35v220.375c0 8.2-6.15 14.35-13.325 14.35zM639.601 261.7v59.45c0 44.075 34.85 80.975 77.9 82 46.125 2.050 83.025-35.875 83.025-79.95v-60.475c0-2.050-1.025-4.1-4.1-4.1-21.525 0-131.2 0-152.725 0-2.050 0-4.1 1.025-4.1 3.075zM579.126 554.85v0l3.075 53.3c0 4.1 0 8.2 0 11.275 0 69.7-63.55 126.075-143.5 126.075s-143.5-56.375-143.5-126.075c0-4.1 0-8.2 1.025-12.3l3.075-52.275h-1.025c-20.5 0-28.7-25.625-22.55-46.125 6.15-24.6 9.225-46.125 30.75-46.125v0c7.175-29.725 27.675-67.65 52.275-95.325v-153.75h160.925v151.7c26.65 27.675 48.175 66.625 53.3 97.375 20.5 1.025 22.55 22.55 29.725 46.125 5.125 20.5-2.050 46.125-23.575 46.125zM539.151 307.825c0 0 0 1.025 0 2.050-38.95 15.375-56.375 16.4-100.45 16.4-150.675 0-281.875-115.825-281.875-171.175s0-84.050 0-84.050h381.3v147.6c1.025 22.55 1.025 89.175 1.025 89.175z" />
<glyph unicode="&#xe822;" glyph-name="identity-theft-insurance" d="M435.625 475.925c0 0-13.325 15.375-22.55 20.5v1.025l-1.025 1.025c-15.375 9.225-31.775 15.375-49.2 17.425-5.125 1.025-11.275 1.025-16.4 1.025-11.275 0-22.55-1.025-32.8-4.1-7.175-2.050-14.35-4.1-21.525-8.2-6.15-3.075-12.3-7.175-18.45-10.25-8.2-6.15-21.525-17.425-21.525-17.425-16.4-15.375-33.825-48.175-37.925-60.475-2.050-7.175-1.025-13.325 4.1-16.4 2.050-2.050 4.1-2.050 6.15-2.050s6.15 1.025 9.225 6.15c1.025 2.050 2.050 3.075 3.075 5.125l1.025 2.050c4.1 9.225 18.45 34.85 20.5 36.9 4.1 5.125 9.225 9.225 13.325 14.35 1.025 0 2.050 1.025 2.050 1.025 8.2 7.175 15.375 12.3 23.575 16.4 2.050 1.025 5.125 2.050 7.175 3.075l3.075 1.025c0 0 1.025 1.025 2.050 1.025 12.3 4.1 24.6 7.175 36.9 7.175 4.1 0 8.2 0 12.3-1.025 8.2-1.025 16.4-3.075 22.55-5.125 3.075-1.025 7.175-3.075 10.25-4.1l3.075-2.050 4.1-2.050c3.075-2.050 14.35-12.3 22.55-20.5 3.075-3.075 6.15-4.1 7.175-4.1 4.1 0 7.175 2.050 9.225 6.15 3.075 5.125 2.050 11.275-2.050 16.4zM467.4 264.775c-2.050 7.175-6.15 11.275-11.275 11.275-3.075 0-6.15-2.050-8.2-5.125-2.050-2.050-3.075-6.15-2.050-12.3v-16.4c0-1.025-1.025-2.050-1.025-3.075 0-25.625-5.125-49.2-14.35-70.725-4.1-10.25-9.225-19.475-15.375-27.675-5.125-6.15-20.5-35.875-57.4-37.925-4.1 0-8.2-3.075-9.225-7.175 0-2.050-1.025-6.15 1.025-11.275 3.075-5.125 11.275-6.15 13.325-5.125 48.175 3.075 78.925 54.325 88.15 74.825 10.25 21.525 15.375 43.050 17.425 66.625 0 2.050 0 5.125 0 7.175 1.025 6.15 0 26.65-1.025 36.9zM482.775 100.775c-1.025 4.1-7.175 7.175-11.275 7.175-5.125 0-10.25-4.1-13.325-11.275-1.025-2.050-3.075-5.125-5.125-8.2-9.225-15.375-32.8-34.85-69.7-50.225-19.475-8.2-29.725-9.225-50.225-9.225-17.425 0-30.75 9.225-39.975 12.3-2.050 1.025-4.1 2.050-6.15 2.050-4.1 0-8.2-2.050-10.25-7.175-2.050-6.15 1.025-13.325 5.125-15.375 13.325-9.225 28.7-13.325 37.925-14.35 101.475-12.3 154.775 62.525 161.95 79.95 3.075 5.125 3.075 10.25 1.025 14.35zM315.7 102.825c-4.1 6.15-25.625 8.2-42.025 26.65-12.3 12.3-21.525 21.525-31.775 43.050-3.075 5.125-6.15 12.3-9.225 19.475-1.025 4.1-3.075 8.2-4.1 13.325-15.375 45.1-9.225 127.1-5.125 140.425 3.075 9.225-1.025 14.35-5.125 16.4-1.025 1.025-3.075 2.050-5.125 2.050-10.25 0-12.3-15.375-13.325-18.45-5.125-18.45-5.125-92.25-5.125-93.275 1.025-15.375 4.1-32.8 9.225-49.2 11.275-38.95 28.7-68.675 38.95-79.95 22.55-24.6 44.075-38.95 62.525-38.95 0 0 8.2 0 10.25 6.15 3.075 6.15 2.050 9.225 0 12.3zM388.475 571.25c-3.075 1.025-15.375 8.2-42.025 8.2-5.125 0-10.25 0-15.375-1.025-12.3-1.025-24.6-3.075-35.875-7.175-13.325-4.1-24.6-9.225-32.8-14.35-14.35-8.2-28.7-18.45-43.050-32.8-9.225-9.225-17.425-19.475-26.65-32.8-1.025-1.025-1.025-1.025-2.050-2.050-8.2-12.3-16.4-25.625-22.55-39.975-4.1-8.2-7.175-17.425-11.275-27.675-1.025-4.1-2.050-8.2-3.075-12.3l-2.050-5.125c-2.050-6.15 0-12.3 5.125-15.375 2.050-1.025 4.1-2.050 5.125-2.050 3.075 0 7.175 1.025 10.25 8.2 1.025 1.025 1.025 2.050 1.025 3.075v0c4.1 12.3 8.2 25.625 15.375 39.975l2.050 5.125c2.050 4.1 4.1 7.175 6.15 11.275 4.1 8.2 9.225 15.375 14.35 22.55 4.1 6.15 9.225 12.3 14.35 18.45 2.050 3.075 5.125 6.15 8.2 9.225l3.075 3.075h1.025c0 0 1.025 1.025 2.050 1.025 13.325 13.325 26.65 22.55 38.95 28.7 0 0 1.025 0 2.050 1.025 18.45 9.225 38.95 15.375 61.5 16.4 1.025 0 2.050 0 4.1 0 5.125 0 11.275-1.025 16.4-1.025s11.275-3.075 20.5-6.15c1.025 0 0 0 4.1-1.025 6.15-1.025 10.25 4.1 11.275 10.25 0 7.175-3.075 12.3-10.25 14.35zM246 70.025c-5.125 3.075-21.525 20.5-23.575 23.575-36.9 35.875-47.15 80.975-51.25 98.4-8.2 31.775-10.25 76.875-10.25 76.875 0 8.2 0 41 2.050 51.25 2.050 9.225-2.050 14.35-7.175 16.4-1.025 1.025-3.075 1.025-4.1 1.025-3.075 0-8.2-2.050-10.25-11.275-1.025-4.1-2.050-8.2-2.050-11.275-4.1-19.475-2.050-50.225-2.050-56.375 6.15-88.15 25.625-123 35.875-142.475 5.125-12.3 21.525-30.75 21.525-31.775 8.2-11.275 11.275-13.325 20.5-22.55 2.050-1.025 15.375-15.375 25.625-15.375 7.175 0 9.225 2.050 11.275 7.175 3.075 4.1 0 10.25-6.15 16.4zM525.826 281.175c0 8.2-1.025 16.4-2.050 24.6-1.025 11.275-3.075 24.6-6.15 37.925-1.025 8.2-3.075 16.4-5.125 22.55-3.075 8.2-6.15 18.45-10.25 27.675-3.075 9.225-12.3 28.7-18.45 36.9-4.1 5.125-9.225 7.175-11.275 7.175s-4.1-1.025-6.15-2.050c-5.125-4.1-6.15-10.25-4.1-16.4 1.025-1.025 1.025-2.050 2.050-3.075 8.2-11.275 18.45-35.875 18.45-36.9l2.050-5.125c3.075-7.175 5.125-14.35 7.175-21.525 1.025-4.1 2.050-8.2 4.1-13.325l1.025-6.15c0-2.050 1.025-4.1 1.025-5.125 1.025-8.2 3.075-16.4 4.1-28.7 0-6.15 1.025-13.325 1.025-20.5 0-3.075 1.025-6.15 1.025-8.2v-5.125c0-3.075 0-6.15 0-9.225-1.025-18.45-4.1-37.925-7.175-56.375-3.075-17.425-6.15-26.65-11.275-42.025-2.050-6.15 0-12.3 5.125-15.375 2.050-2.050 4.1-2.050 6.15-2.050 4.1 0 8.2 2.050 10.25 8.2l2.050 6.15c2.050 5.125 3.075 10.25 5.125 15.375 3.075 13.325 5.125 20.5 7.175 33.825l1.025 7.175c2.050 14.35 4.1 28.7 4.1 43.050 0 9.225 0 18.45-1.025 26.65zM510.45 471.825c-2.050 5.125-10.25 19.475-15.375 25.625-4.1 5.125-8.2 10.25-12.3 15.375-9.225 10.25-19.475 20.5-32.8 29.725-2.050 2.050-5.125 3.075-7.175 3.075-4.1 0-7.175-2.050-10.25-5.125-2.050-4.1-2.050-7.175-2.050-9.225 0-5.125 4.1-7.175 5.125-8.2l1.025-1.025c3.075-2.050 5.125-4.1 7.175-6.15l2.050-1.025c5.125-4.1 9.225-8.2 13.325-12.3s7.175-8.2 10.25-12.3c2.050-2.050 3.075-3.075 4.1-5.125l3.075-4.1c2.050-3.075 4.1-6.15 6.15-10.25 2.050-2.050 3.075-3.075 3.075-4.1 1.025-1.025 1.025-2.050 3.075-5.125 3.075-7.175 8.2-8.2 10.25-8.2s4.1 0 6.15 1.025c5.125 2.050 9.225 8.2 5.125 17.425zM461.25 327.3c0 1.025-3.075 20.5-4.1 24.6-4.1 12.3-10.25 28.7-21.525 44.075-4.1 5.125-7.175 6.15-11.275 6.15-2.050 0-3.075-1.025-5.125-1.025-3.075-2.050-5.125-4.1-6.15-7.175-1.025-4.1 1.025-7.175 2.050-8.2s2.050-3.075 2.050-3.075c2.050-2.050 5.125-8.2 8.2-11.275 5.125-8.2 6.15-14.35 8.2-20.5 2.050-4.1 2.050-9.225 3.075-13.325s2.050-8.2 3.075-12.3c1.025-8.2 2.050-17.425 11.275-16.4 4.1 0 7.175 2.050 9.225 5.125 1.025 3.075 2.050 8.2 1.025 13.325zM393.6 431.85c-11.275 11.275-23.575 16.4-41 17.425-2.050 0-3.075 0-4.1 0-27.675 0-59.45-18.45-76.875-47.15-11.275-17.425-17.425-50.225-19.475-69.7-3.075-53.3 3.075-106.6 3.075-109.675 5.125-50.225 48.175-72.775 79.95-69.7 5.125 1.025 10.25 1.025 14.35 2.050 24.6 7.175 45.1 26.65 53.3 57.4 0 1.025 0 2.050 1.025 4.1 0 3.075 1.025 6.15 1.025 9.225 2.050 18.45 2.050 36.9 0 61.5 0 11.275 0 22.55-2.050 34.85-6.15 37.925-19.475 55.35-46.125 58.425-2.050 0-4.1-1.025-6.15-1.025-29.725-2.050-45.1-22.55-48.175-56.375-1.025-9.225 0-66.625 1.025-75.85 0-25.625 20.5-33.825 31.775-32.8 19.475 1.025 29.725 12.3 30.75 29.725 0 5.125 0 15.375 0 20.5-2.050 13.325-11.275 12.3-11.275 12.3-9.225-2.050-10.25-8.2-9.225-15.375 0-5.125 0-8.2 0-14.35 0-1.025-2.050-8.2-6.15-8.2-6.15-1.025-13.325 3.075-13.325 14.35 0 8.2 0 53.3 0 57.4 0 19.475 5.125 42.025 29.725 41 11.275-1.025 20.5-11.275 22.55-33.825 1.025-7.175 2.050-14.35 2.050-21.525v-1.025c0-3.075 1.025-6.15 1.025-9.225 0-1.025 0-3.075 0-5.125 0-4.1 0-8.2 0-12.3 1.025-21.525 0-37.925-3.075-53.3 0-1.025-1.025-3.075-1.025-4.1-2.050-6.15-4.1-11.275-7.175-15.375-9.225-13.325-20.5-19.475-33.825-19.475-1.025 0-3.075 0-5.125 0-13.325 2.050-33.825 10.25-42.025 24.6-3.075 5.125-4.1 11.275-7.175 17.425-3.075 7.175-8.2 62.525-3.075 110.7 2.050 23.575 5.125 48.175 18.45 62.525 12.3 15.375 34.85 28.7 51.25 28.7 3.075 0 6.15 0 10.25-1.025 11.275-2.050 14.35-4.1 20.5-8.2 3.075-2.050 5.125-3.075 7.175-3.075s6.15 0 10.25 4.1c4.1 5.125 4.1 12.3-3.075 19.475zM777.976 549.725v11.275c6.15 6.15 11.275 15.375 12.3 22.55 5.125 0 5.125 5.125 7.175 10.25 1.025 4.1-1.025 10.25-5.125 10.25v0 11.275c0 1.025 0 2.050 0 3.075 0 15.375-14.35 27.675-31.775 27.675s-32.8-12.3-32.8-27.675c0-1.025 0-2.050 0-3.075l1.025-11.275c-5.125 0-7.175-6.15-5.125-10.25 1.025-6.15 2.050-10.25 6.15-10.25v0c2.050-7.175 6.15-15.375 12.3-21.525v-12.3c-25.625-6.15-45.1-25.625-45.1-35.875 0-12.3 0-18.45 0-18.45h126.075c0 0 0 5.125 0 18.45 0 10.25-19.475 29.725-45.1 35.875zM656.001 606.1c-3.075 3.075-6.15 4.1-10.25 4.1h-187.575c-7.175 0-14.35-6.15-14.35-14.35 0-5.125 3.075-10.25 8.2-12.3 2.050-1.025 4.1-2.050 6.15-2.050h187.575c7.175 0 14.35 6.15 14.35 14.35 0 4.1-2.050 8.2-4.1 10.25zM646.776 515.9c-2.050 3.075-6.15 4.1-10.25 4.1h-119.925l20.5-28.7h99.425c7.175 0 14.35 6.15 14.35 14.35 1.025 4.1-1.025 8.2-4.1 10.25zM810.776 421.6h-256.25l7.175-28.7h249.075c7.175 0 14.35 6.15 14.35 14.35s-7.175 14.35-14.35 14.35zM810.776 324.225h-253.175v-28.7h253.175c7.175 0 14.35 6.15 14.35 14.35s-7.175 14.35-14.35 14.35zM810.776 225.825h-254.2l-6.15-28.7 259.325 1.025c8.2 0 14.35 6.15 14.35 14.35 1.025 7.175-6.15 13.325-13.325 13.325zM863.051 749.6h-473.55c-4.1 0-8.2-4.1-9.225-6.15-3.075-4.1-4.1-8.2-4.1-13.325v-124.025h29.725v100.45c0 5.125 4.1 9.225 9.225 9.225h432.55c5.125 0 9.225-4.1 9.225-9.225v-586.301c0-5.125-4.1-9.225-9.225-9.225h-312.625l-15.375-31.775h358.75c0 0 9.225 9.225 9.225 20.5v631.401c0 8.2-8.2 18.45-24.6 18.45z" />
<glyph unicode="&#xe823;" glyph-name="homeowner-plus-value-package" d="M848.701 344.725c-48.175 123-207.050 264.45-270.6 262.4-20.5-37.925-110.7-35.875-131.2 0-62.525 4.1-222.425-139.4-269.575-262.4-26.65-67.65-36.9-150.675-15.375-220.375 3.075-12.3 8.2-23.575 15.375-34.85 28.7-51.25 80.975-88.15 134.275-109.675 63.55-24.6 132.225-30.75 200.9-33.825 67.65 3.075 137.35 9.225 199.875 33.825 54.325 21.525 105.575 58.425 135.3 109.675 7.175 10.25 11.275 22.55 14.35 34.85 23.575 69.7 12.3 152.725-13.325 220.375zM537.101 96.675v-34.85c0-6.15-5.125-11.275-11.275-11.275h-30.75c-5.125 0-10.25 5.125-10.25 11.275v29.725c0 5.125-4.1 10.25-10.25 10.25-27.675 3.075-54.325 9.225-71.75 18.45-5.125 2.050-7.175 7.175-6.15 12.3l10.25 41c2.050 6.15 9.225 9.225 15.375 7.175 20.5-10.25 47.15-17.425 75.85-17.425 30.75 0 51.25 11.275 51.25 32.8 0 19.475-17.425 32.8-56.375 46.125-56.375 18.45-95.325 45.1-95.325 96.35 0 44.075 29.725 79.95 82 92.25 4.1 1.025 8.2 6.15 8.2 10.25v30.75c0 5.125 4.1 10.25 10.25 10.25h30.75c6.15 0 11.275-4.1 11.275-10.25v-26.65c0-5.125 4.1-10.25 9.225-10.25 25.625-2.050 44.075-7.175 58.425-13.325 5.125-2.050 8.2-7.175 6.15-12.3l-10.25-38.95c-1.025-6.15-8.2-9.225-14.35-7.175-14.35 6.15-34.85 13.325-64.575 13.325-33.825 0-45.1-14.35-45.1-29.725 0-17.425 18.45-28.7 63.55-45.1 62.525-22.55 88.15-51.25 88.15-99.425 0-45.1-30.75-83.025-86.1-96.35-5.125 0-8.2-4.1-8.2-9.225zM463.3 624.55c6.15-6.15 22.55-18.45 49.2-18.45 27.675 0 44.075 11.275 50.225 18.45 20.5 23.575 103.525 117.875 105.575 132.225 3.075 14.35 4.1 30.75-9.225 31.775-12.3 1.025-24.6-8.2-43.050-7.175-17.425 1.025-24.6 26.65-44.075 27.675-18.45 1.025-36.9-23.575-53.3-22.55h-11.275c-17.425-1.025-34.85 23.575-53.3 22.55-19.475-1.025-26.65-26.65-44.075-27.675s-30.75 8.2-43.050 7.175-12.3-17.425-9.225-31.775c2.050-14.35 85.075-108.65 105.575-132.225zM513.525 604.050v0c-1.025 0-1.025 0-1.025 0h1.025z" />
<glyph unicode="&#xe824;" glyph-name="fraud-protection" d="M784.126 448.25h-30.75c-4.1 0-8.2 3.075-8.2 8.2v116.85c0 126.075-98.4 233.7-225.5 237.8-131.2 4.1-239.85-102.5-239.85-232.675v-121.975c0-5.125-4.1-8.2-8.2-8.2h-30.75c-15.375 0-28.7-13.325-28.7-28.7v-446.9c0-15.375 13.325-28.7 28.7-28.7h543.251c15.375 0 28.7 13.325 28.7 28.7v446.9c0 15.375-13.325 28.7-28.7 28.7zM548.376 184.825l21.525-128.125h-114.8l21.525 128.125c-25.625 13.325-43.050 39.975-43.050 70.725 0 44.075 34.85 79.95 78.925 79.95s79.95-35.875 79.95-79.95c0-30.75-18.45-57.4-44.075-70.725zM675.476 456.45c0-5.125-3.075-8.2-7.175-8.2-45.1 0-265.475-1.025-309.55-1.025-5.125 0-8.2 4.1-8.2 8.2v118.9c0 88.15 68.675 164 157.85 166.050 92.25 3.075 167.075-71.75 167.075-162.975v-120.95z" />
<glyph unicode="&#xe825;" glyph-name="fixed-rate-mortgage" d="M430.5 163.3h-35.875c-3.075 0-5.125-2.050-5.125-4.1v-58.425c0-2.050 2.050-4.1 5.125-4.1h35.875c2.050 0 4.1 2.050 4.1 4.1v58.425c0 2.050-2.050 4.1-4.1 4.1zM631.401 163.3h-35.875c-2.050 0-4.1-2.050-4.1-4.1v-58.425c0-2.050 2.050-4.1 4.1-4.1h35.875c3.075 0 5.125 2.050 5.125 4.1v58.425c0 2.050-2.050 4.1-5.125 4.1zM787.201 448.25h-38.95v127.1c0 128.125-101.475 236.775-230.625 238.825-132.225 3.075-239.85-103.525-239.85-234.725v-131.2h-38.95c-15.375 0-28.7-12.3-28.7-28.7v-449.975c0-16.4 13.325-28.7 28.7-28.7h547.351c16.4 0 28.7 12.3 28.7 28.7v449.975c1.025 15.375-12.3 28.7-27.675 28.7zM349.525 453.375v121.975c0 6.15 0 11.275 1.025 17.425s1.025 12.3 2.050 17.425c1.025 3.075 1.025 6.15 2.050 8.2 19.475 72.775 85.075 126.075 161.95 125.050 3.075 0 6.15 0 8.2-1.025 86.1-6.15 152.725-77.9 152.725-164v-131.2h-328c0 2.050 0 6.15 0 6.15v0zM678.551 45.425h-126.075c-2.050 0-4.1 2.050-4.1 5.125v141.45c0 3.075-2.050 5.125-5.125 5.125h-58.425c-3.075 0-5.125-2.050-5.125-5.125v-142.475c0-2.050-2.050-4.1-4.1-4.1h-130.175l-1.025 196.8c0 1.025 1.025 3.075 3.075 4.1l164 96.35c2.050 1.025 3.075 1.025 5.125 0l83.025-48.175c3.075-2.050 7.175 0 7.175 4.1v22.55c0 3.075 2.050 5.125 5.125 5.125h21.525c2.050 0 4.1-2.050 4.1-5.125v-46.125c0-2.050 1.025-3.075 3.075-4.1l41-24.6c2.050-1.025 3.075-2.050 3.075-4.1v-192.7c-1.025-2.050-3.075-4.1-6.15-4.1z" />
<glyph unicode="&#xe826;" glyph-name="fifth-third-direct" d="M703.151 701.425h-548.376c-5.125 0-10.25-5.125-10.25-10.25v-460.225c0-97.375 79.95-176.3 177.325-176.3h548.376c5.125 0 10.25 4.1 10.25 10.25v459.2c0 97.375-79.95 177.325-177.325 177.325zM844.601 80.275h-520.7c-84.050 0-152.725 68.675-152.725 152.725v432.55c0 5.125 4.1 10.25 10.25 10.25h520.7c84.050 0 152.725-68.675 152.725-152.725v-432.55c0-6.15-5.125-10.25-10.25-10.25zM437.675 600.975l-2.050-103.525h-196.8v103.525h198.85zM449.975 336.525c12.3 12.3 16.4 38.95 10.25 60.475s-17.425 36.9-34.85 50.225c-23.575 18.45-48.175 19.475-48.175 19.475h-138.375c58.425-19.475 71.75-70.725 71.75-70.725 15.375-70.725-66.625-84.050-66.625-84.050h152.725c29.725 1.025 49.2 20.5 53.3 24.6zM719.551 308.85c33.825 7.175 47.15 23.575 52.275 28.7 11.275 11.275 18.45 35.875 12.3 56.375-6.15 19.475-15.375 32.8-32.8 45.1-21.525 17.425-46.125 16.4-46.125 16.4l-129.15 1.025c54.325-18.45 65.6-65.6 65.6-65.6s20.5-64.575-63.55-80.975c0 0-1.025 0 0 0 7.175-3.075 27.675-13.325 44.075-29.725 14.35-15.375 19.475-37.925 19.475-37.925 13.325-65.6-66.625-82-66.625-82h127.1c44.075 0 63.55 24.6 67.65 27.675 11.275 12.3 20.5 34.85 16.4 54.325-5.125 21.525-16.4 34.85-25.625 43.050-15.375 13.325-41 23.575-41 23.575-1.025 0 0 0 0 0zM470.475 151l123 462.275-29.725 1.025-121.975-463.3h28.7z" />
<glyph unicode="&#xe827;" glyph-name="fha-loan" d="M442.8 491.3h20.5c3.075 0 4.1 2.050 4.1 4.1v35.875c0 3.075-2.050 4.1-4.1 4.1h-20.5c-3.075 0-4.1-2.050-4.1-4.1v-35.875c0-2.050 2.050-4.1 4.1-4.1zM575.026 491.3h21.525c2.050 0 4.1 2.050 4.1 4.1v35.875c0 3.075-2.050 4.1-4.1 4.1h-21.525c-2.050 0-4.1-2.050-4.1-4.1v-35.875c0-2.050 2.050-4.1 4.1-4.1zM833.326 403.15c-2.050 5.125-84.050 153.75-84.050 153.75l84.050 152.725c4.1 8.2 5.125 18.45-6.15 18.45h-529.926c-4.1 0-7.175-3.075-7.175-7.175v-329.025c0-3.075 3.075-6.15 7.175-6.15 0 0 529.926 0 529.926 0 11.275 0 11.275 9.225 6.15 17.425zM542.226 462.6v91.225c0 2.050-2.050 4.1-4.1 4.1h-36.9c-2.050 0-4.1-2.050-4.1-4.1v-92.25c0-2.050-2.050-4.1-4.1-4.1h-79.95c-3.075 0-4.1 2.050-4.1 4.1l-1.025 125.050c0 1.025 1.025 3.075 2.050 3.075l107.625 63.55c1.025 1.025 3.075 1.025 4.1 0l52.275-30.75c3.075-2.050 6.15 0 6.15 3.075v12.3c0 2.050 2.050 4.1 4.1 4.1h12.3c2.050 0 4.1-2.050 4.1-4.1v-28.7c0-2.050 1.025-3.075 2.050-4.1l25.625-15.375c2.050 0 2.050-2.050 2.050-3.075l1.025-125.050c0-3.075-2.050-4.1-4.1-4.1h-80.975c-2.050 1.025-4.1 3.075-4.1 5.125zM270.6 56.7v672.401c0 7.175-6.15 13.325-14.35 13.325h-3.075c-7.175 0-13.325-6.15-13.325-13.325v-672.401c0-7.175-6.15-13.325-14.35-13.325h-23.575c-7.175 0-13.325-6.15-13.325-14.35v-3.075c0-7.175 6.15-13.325 13.325-13.325h106.6c8.2 0 14.35 6.15 14.35 13.325v3.075c0 8.2-6.15 14.35-14.35 14.35h-23.575c-8.2 0-14.35 6.15-14.35 13.325z" />
<glyph unicode="&#xe828;" glyph-name="overdraft-protection" d="M98.4 512.825c-4.1-1.025-7.175 3.075-6.15 6.15 77.9 168.1 310.575 298.275 545.301 210.125s345.425-343.375 274.7-535.051c-2.050-4.1-7.175-4.1-8.2 0-15.375 37.925-58.425 96.35-165.025 136.325-2.050 1.025-4.1 3.075-3.075 6.15 18.45 65.6 9.225 172.2-28.7 227.55-2.050 4.1-9.225 2.050-8.2-3.075 10.25-45.1 26.65-142.475-4.1-237.8-1.025-3.075-5.125-4.1-8.2-1.025-59.45 63.55-105.575 88.15-157.85 110.7-50.225 22.55-149.65 45.1-196.8 32.8-4.1-1.025-7.175 2.050-5.125 6.15 20.5 55.35 90.2 131.2 142.475 167.075 4.1 3.075 1.025 10.25-4.1 8.2-59.45-20.5-133.25-90.2-161.95-143.5-1.025-2.050-3.075-3.075-5.125-2.050-43.050 20.5-149.65 29.725-199.875 11.275zM620.126 727.050l2.050 4.1c10.25 23.575 18.45 39.975 32.8 39.975 2.050 0 5.125 0 8.2-2.050 9.225-3.075 13.325-10.25 12.3-20.5 0-8.2-4.1-19.475-10.25-34.85l-2.050-4.1-43.050 17.425zM283.925-16.075c-15.375 0-31.775 3.075-48.175 10.25-33.825 13.325-57.4 36.9-69.7 66.625-21.525 54.325 2.050 110.7 2.050 111.725 4.1 9.225 12.3 15.375 21.525 15.375 6.15 0 12.3-3.075 16.4-9.225s4.1-13.325 1.025-21.525c-2.050-5.125-17.425-50.225 1.025-87.125 9.225-18.45 25.625-31.775 50.225-38.95 9.225-3.075 17.425-4.1 25.625-4.1v0c42.025 0 75.85 34.85 101.475 103.525 9.225 24.6 64.575 166.050 101.475 260.35 12.3 32.8 22.55 58.425 26.65 69.7l2.050 5.125 5.125-2.050c2.050-1.025 5.125-2.050 9.225-4.1 6.15-2.050 13.325-5.125 19.475-8.2l5.125-2.050-2.050-4.1c-5.125-16.4-57.4-150.675-96.35-249.075-13.325-33.825-23.575-61.5-29.725-77.9-19.475-50.225-64.575-134.275-142.475-134.275v0z" />
<glyph unicode="&#xe829;" glyph-name="payroll_services" d="M751.326 348.825c-101.475 0-183.475-83.025-183.475-184.5s82-184.5 183.475-184.5 184.5 83.025 184.5 184.5-83.025 184.5-184.5 184.5zM767.726 47.475v-22.55c0-4.1-3.075-8.2-7.175-8.2h-20.5c-4.1 0-8.2 4.1-8.2 8.2v19.475c0 4.1-3.075 7.175-7.175 8.2-18.45 1.025-35.875 6.15-49.2 12.3-3.075 1.025-5.125 5.125-4.1 8.2l7.175 27.675c1.025 5.125 6.15 7.175 10.25 5.125 14.35-6.15 32.8-11.275 52.275-11.275 20.5 0 34.85 7.175 34.85 22.55 0 13.325-12.3 22.55-38.95 30.75-37.925 13.325-64.575 31.775-64.575 66.625 0 29.725 19.475 54.325 55.35 62.525 3.075 1.025 5.125 4.1 5.125 7.175v21.525c0 4.1 4.1 7.175 8.2 7.175h20.5c4.1 0 7.175-3.075 7.175-7.175v-17.425c0-4.1 3.075-7.175 7.175-8.2 17.425-1.025 29.725-4.1 39.975-8.2 3.075-2.050 5.125-5.125 4.1-9.225l-7.175-25.625c-1.025-5.125-5.125-7.175-10.25-5.125-9.225 4.1-23.575 8.2-44.075 8.2-23.575 0-30.75-10.25-30.75-19.475 0-12.3 12.3-19.475 43.050-31.775 43.050-15.375 60.475-34.85 60.475-67.65 0-30.75-20.5-56.375-58.425-65.6-2.050-1.025-5.125-4.1-5.125-8.2zM531.976 164.325c0 39.975 11.275 77.9 30.75 110.7-25.625 13.325-47.15 24.6-76.875 32.8l-2.050 1.025v54.325c28.7 29.725 52.275 72.775 58.425 105.575 21.525 1.025 24.6 24.6 31.775 50.225 6.15 21.525-2.050 49.2-25.625 49.2v0l3.075 58.425c0 4.1 0 8.2 0 12.3 0 74.825-69.7 136.325-155.8 136.325s-155.8-61.5-155.8-136.325c0-5.125 1.025-9.225 1.025-13.325l3.075-56.375h-1.025c-22.55 0-30.75-28.7-24.6-50.225 7.175-26.65 10.25-49.2 32.8-49.2v0c8.2-32.8 30.75-73.8 57.4-103.525v-57.4l-4.1-1.025c-121.975-32.8-215.25-124.025-215.25-172.2 0-60.475 0-92.25 0-92.25h479.7c-23.575 33.825-36.9 75.85-36.9 120.95z" />
<glyph unicode="&#xe82a;" glyph-name="star" horiz-adv-x="902" d="M451 828.525l123-344.4h328l-268.55-200.9 96.35-356.7-278.8 213.2-278.8-213.2 96.35 356.7-268.55 200.9h328z" />
<glyph unicode="&#xe82c;" glyph-name="savings-accounts" d="M508.4 545.625v9.225c0 1.025-1.025 3.075-3.075 3.075-8.2 1.025-16.4 3.075-21.525 6.15-2.050 0-2.050 2.050-2.050 4.1l3.075 12.3c1.025 2.050 3.075 3.075 5.125 2.050 6.15-3.075 14.35-5.125 22.55-5.125 9.225 0 15.375 3.075 15.375 10.25 0 6.15-5.125 10.25-16.4 13.325-17.425 6.15-29.725 14.35-29.725 29.725 0 13.325 9.225 24.6 24.6 28.7 2.050 0 3.075 1.025 3.075 3.075v9.225c0 2.050 1.025 3.075 3.075 3.075h9.225c2.050 0 4.1-1.025 4.1-3.075v-8.2c0-1.025 1.025-3.075 3.075-3.075 7.175 0 12.3-2.050 17.425-4.1 1.025 0 2.050-2.050 2.050-4.1l-3.075-11.275c-1.025-2.050-3.075-3.075-5.125-2.050-4.1 2.050-10.25 4.1-19.475 4.1-10.25 0-13.325-5.125-13.325-9.225 0-5.125 5.125-9.225 19.475-14.35 19.475-6.15 26.65-15.375 26.65-29.725s-9.225-25.625-25.625-29.725c-2.050 0-3.075-1.025-3.075-3.075v-10.25c0-2.050-1.025-3.075-3.075-3.075h-9.225c-3.075-1.025-4.1 1.025-4.1 2.050zM887.651 211.475c-24.6 3.075-19.475 9.225-32.8 22.55-14.35 13.325-15.375 21.525-15.375 21.525 3.075 17.425 0 32.8-4.1 48.175-7.175 34.85-12.3 52.275-31.775 79.95-10.25-21.525-22.55-41-35.875-49.2s-30.75-9.225-30.75-9.225c20.5 10.25 42.025 74.825 54.325 88.15 26.65 27.675 41 24.6-29.725 34.85s-99.425-33.825-101.475-61.5l-2.050 30.75c1.025 15.375 18.45 49.2 70.725 54.325 12.3 1.025 37.925-3.075 38.95-3.075 1.025 3.075 1.025 5.125 2.050 9.225 8.2 26.65 24.6 31.775-43.050 9.225-12.3-4.1-22.55-8.2-30.75-13.325-45.1 20.5-143.5 41-239.85 28.7-157.85-18.45-160.925-37.925-203.975-139.4 0 0-23.575 7.175-30.75 17.425 1.025 1.025 3.075 1.025 5.125 2.050 2.050 2.050 4.1 3.075 7.175 5.125 1.025 1.025 6.15 6.15 6.15 6.15 3.075 5.125 7.175 9.225 9.225 15.375s4.1 13.325 4.1 20.5-3.075 14.35-7.175 20.5c-4.1 6.15-10.25 11.275-18.45 14.35s-17.425 2.050-25.625-1.025-13.325-9.225-17.425-14.35c-2.050-3.075-6.15-9.225-10.25-16.4-5.125-10.25-5.125-23.575-4.1-35.875 1.025-3.075 1.025-7.175 2.050-10.25-2.050 1.025-14.35 6.15-19.475 9.225-5.125 4.1-6.15 7.175-9.225 10.25-3.075 4.1-5.125 9.225-6.15 11.275s-4.1 1.025-3.075-3.075c1.025-2.050 3.075-5.125 5.125-9.225s5.125-9.225 10.25-13.325c5.125-5.125 11.275-9.225 19.475-12.3 2.050-1.025 4.1-2.050 6.15-2.050 17.425-42.025 60.475-56.375 63.55-57.4-2.050-13.325-3.075-27.675-3.075-41 5.125-105.575 101.475-165.025 101.475-165.025 0-2.050 5.125-25.625 19.475-55.35s33.825-30.75 55.35-35.875 35.875 2.050 36.9 5.125c1.025 3.075-12.3 21.525-13.325 28.7s9.225 29.725 9.225 29.725c38.95-12.3 167.075-10.25 171.175-10.25 3.075 0 17.425-35.875 26.65-48.175s29.725-13.325 48.175-13.325c18.45 0 23.575 8.2 23.575 8.2s-23.575 64.575-11.275 67.65l20.5 14.35c10.25 2.050 44.075 18.45 57.4 23.575s25.625 0 59.45 9.225c52.275 10.25 44.075 41 48.175 57.4 6.15 15.375-1.025 16.4-1.025 16.4zM211.15 390.85c0 1.025-1.025 2.050-1.025 2.050-2.050 3.075-3.075 5.125-3.075 8.2s-1.025 6.15-1.025 9.225c0 2.050-3.075 15.375 7.175 25.625 1.025 0 1.025 1.025 2.050 1.025 0 1.025 1.025 1.025 2.050 1.025v0c1.025 0 2.050 0 3.075 0 2.050 0 4.1-1.025 6.15-3.075 4.1-4.1 6.15-12.3 4.1-19.475-1.025-3.075-2.050-7.175-5.125-11.275v0c1.025 1.025 0 0 0 0v0 0l-1.025-1.025c0 0 0-1.025-1.025-1.025 0-1.025-1.025-2.050-2.050-2.050-1.025-1.025-1.025-2.050-2.050-3.075-2.050-2.050-5.125-4.1-8.2-6.15zM758.501 199.175c-14.35 0-24.6 11.275-24.6 24.6s11.275 24.6 24.6 24.6c13.325 0 24.6-11.275 24.6-24.6s-11.275-24.6-24.6-24.6zM414.1 608.15c0 56.375 46.125 102.5 102.5 102.5s102.5-46.125 102.5-102.5c0-30.75-13.325-58.425-34.85-76.875 12.3-2.050 23.575-3.075 34.85-5.125 18.45 22.55 29.725 51.25 29.725 82 0 72.775-59.45 132.225-132.225 132.225s-131.2-59.45-131.2-132.225c0-31.775 11.275-61.5 30.75-85.075 11.275 3.075 23.575 5.125 34.85 6.15-21.525 19.475-36.9 48.175-36.9 78.925z" />
<glyph unicode="&#xe82d;" glyph-name="scheduled-payments" d="M867.8 762h-78.1v33.9c0 27.2-21.5 49.4-48.4 50.5-0.6 0-1.2 0.1-1.8 0.1-0.1 0-0.1 0-0.1 0-0.1 0-0.1 0-0.2 0v0c-27.9 0-50.5-22.6-50.5-50.5v-34h-357v33.9c0 27.9-22.6 50.5-50.5 50.5v0c-27.9 0-50.5-22.6-50.5-50.5v-33.9h-75.6c-52.6 0-95.4-42.8-95.4-95.4v-711.6c0-52.6 42.8-95.4 95.4-95.4h711.6c52.6 0 95.4 42.8 95.4 95.4v711.6c1.1 52.6-41.6 95.4-94.3 95.4zM282.3-76.8h-127.1c-17.5 0-31.8 14.3-31.8 31.8v102h159v-133.8zM282.3 108.5h-159v154.6h159v-154.6zM282.3 313.5h-159v142.6h159v-142.6zM486.3-76.8h-152.4v133.8h152.4v-133.8zM333.9 108.5v154.6h152.4v-154.6h-152.4zM486.3 313.5h-152.4v142.6h152.4v-142.6zM691.3-76.8h-154.6v133.8h154.6v-133.8zM691.3 108.5h-154.6v154.6h154.6v-154.6zM692.4 313.5h-155.7v142.6h155.7v-142.6zM899.6-45c0-17.5-14.3-31.8-31.8-31.8h-125v133.8h156.8v-102zM899.6 108.5h-156.8v154.6h156.8v-154.6zM899.6 313.5h-156.8v142.6h156.8v-142.6zM899.6 518.6h-776.2v148c0 17.5 14.3 31.8 31.8 31.8h75.6v-48c0-26.2 20-47.8 45.6-50.3 1.6-0.3 3.3-0.4 5-0.4s3.3 0.1 5 0.4c25.6 2.5 45.6 24.1 45.6 50.3v48h357v-48c0-26.4 20.3-48.1 46.2-50.3 1.5-0.2 3.1-0.3 4.7-0.3 1.9 0 3.7 0.2 5.5 0.5 25.2 2.9 44.7 24.2 44.7 50.2v48h78.1c17.5 0 31.8-14.3 31.8-31.8v-148.1z" />
<glyph unicode="&#xe82e;" glyph-name="security-benefits" d="M633.451 290.4c-2.050 5.125-7.175 7.175-11.275 5.125-60.475-23.575-114.8-83.025-144.525-119.925-3.075-4.1-9.225-4.1-13.325-1.025l-28.7 30.75c-3.075 4.1-8.2 4.1-11.275 1.025l-22.55-21.525c-3.075-3.075-3.075-8.2 0-11.275l67.65-71.75c4.1-4.1 10.25-4.1 13.325 1.025l11.275 15.375c0 1.025 70.725 104.55 144.525 133.25 4.1 2.050 6.15 6.15 4.1 10.25l-9.225 28.7zM780.026 446.2h-29.725c-4.1 0-8.2 4.1-8.2 8.2v113.775c0 123-94.3 229.6-217.3 235.75-132.225 7.175-241.9-98.4-241.9-228.575v-119.925c0-5.125-3.075-8.2-8.2-8.2h-29.725c-15.375 0-27.675-12.3-27.675-28.7v-439.725c0-15.375 12.3-28.7 27.675-28.7h535.051c15.375 0 28.7 12.3 28.7 28.7v439.725c0 15.375-13.325 27.675-28.7 27.675zM352.6 570.225c0 84.050 62.525 156.825 146.575 164 95.325 8.2 174.25-67.65 174.25-159.9v-118.9c0-5.125-4.1-9.225-9.225-9.225-46.125 0-255.225 0-302.375 0-5.125 0-9.225 4.1-9.225 9.225v114.8zM515.575 10.575c-2.050-1.025-4.1-1.025-6.15 0-98.4 54.325-165.025 157.85-165.025 277.775 0 15.375 1.025 29.725 3.075 44.075 0 2.050 2.050 5.125 5.125 5.125 21.525 3.075 113.775 17.425 155.8 54.325 2.050 2.050 5.125 2.050 8.2 0 45.1-35.875 134.275-51.25 155.8-54.325 3.075-1.025 5.125-3.075 5.125-5.125 2.050-14.35 3.075-28.7 3.075-44.075 0-119.925-66.625-224.475-165.025-277.775z" />
<glyph unicode="&#xe82f;" glyph-name="services-charges-waived" d="M558.626 812.125c-239.85 25.625-455.1-148.625-480.725-388.475-24.6-239.85 149.65-456.125 389.5-480.725 239.85-25.625 455.1 149.65 479.7 389.5 25.625 239.85-149.65 455.1-388.475 479.7zM538.126 778.3c106.6-7.175 199.875-54.325 266.5-126.075 4.1-5.125 4.1-11.275-1.025-15.375l-604.751-489.95c-5.125-4.1-12.3-3.075-15.375 2.050-56.375 79.95-83.025 181.425-67.65 287 29.725 206.025 215.25 355.675 422.3 342.35zM486.875-23.25c-106.6 7.175-199.875 55.35-266.5 127.1-4.1 4.1-4.1 11.275 1.025 14.35l604.751 490.975c5.125 3.075 12.3 3.075 15.375-2.050 56.375-80.975 83.025-182.45 67.65-288.025-29.725-205-214.225-355.675-422.3-342.35zM622.176 397l-93.275-74.825c24.6-13.325 35.875-28.7 35.875-48.175 0-30.75-29.725-47.15-73.8-47.15-23.575 0-47.15 3.075-67.65 9.225l-80.975-64.575c1.025-2.050 2.050-4.1 4.1-4.1 28.7-14.35 70.725-26.65 115.825-29.725 5.125 0 9.225-4.1 9.225-9.225v-55.35c0-5.125 4.1-9.225 9.225-9.225h57.4c5.125 0 9.225 4.1 9.225 9.225v62.525c0 4.1 3.075 8.2 7.175 8.2 83.025 17.425 129.15 74.825 129.15 141.45 0 48.175-18.45 84.050-61.5 111.725zM462.275 494.375c0 21.525 16.4 43.050 66.625 43.050 32.8 0 59.45-6.15 78.925-13.325l44.075 35.875 8.2 30.75c1.025 5.125-1.025 9.225-5.125 11.275-22.55 10.25-53.3 18.45-95.325 21.525-5.125 0-9.225 4.1-9.225 9.225v50.225c0 5.125-4.1 9.225-9.225 9.225h-57.4c-5.125 0-9.225-4.1-9.225-9.225v-57.4c0-4.1-3.075-7.175-7.175-8.2-77.9-18.45-123-69.7-123-135.3 0-52.275 27.675-87.125 72.775-112.75l94.3 76.875c-33.825 16.4-49.2 29.725-49.2 48.175z" />
<glyph unicode="&#xe830;" glyph-name="specialists" d="M307.5 473.875v0l2.050 36.9c0 2.050 0 5.125 0 7.175 0 48.175-41 86.1-92.25 86.1s-92.25-37.925-92.25-86.1c0-3.075 0-5.125 1.025-8.2l2.050-35.875h-1.025c-13.325 0-18.45-18.45-14.35-31.775 4.1-17.425 6.15-31.775 19.475-31.775v0c5.125-20.5 26.65-56.375 38.95-70.725 26.65-30.75 65.6-30.75 94.3-2.050 13.325 11.275 35.875 51.25 39.975 71.75 12.3 1.025 14.35 15.375 18.45 31.775 2.050 15.375-2.050 32.8-16.4 32.8zM895.851 473.875v0l1.025 36.9c0 2.050 1.025 5.125 1.025 7.175 0 48.175-42.025 86.1-92.25 86.1-51.25 0-92.25-37.925-92.25-86.1 0-3.075 0-5.125 0-8.2l2.050-35.875c-14.35 0-18.45-18.45-15.375-31.775 5.125-17.425 6.15-31.775 20.5-31.775v0c4.1-20.5 26.65-56.375 37.925-70.725 27.675-30.75 66.625-30.75 95.325-2.050 13.325 11.275 34.85 51.25 38.95 71.75 13.325 1.025 14.35 15.375 19.475 31.775 2.050 15.375-3.075 32.8-16.4 32.8zM642.676 526.15h-1.025l3.075 52.275c0 4.1 0 8.2 0 11.275 0 69.7-59.45 125.050-134.275 125.050s-134.275-55.35-134.275-125.050c0-4.1 0-8.2 1.025-12.3l2.050-51.25c-20.5 0-26.65-26.65-21.525-46.125 6.15-24.6 8.2-45.1 28.7-45.1v0c7.175-30.75 38.95-80.975 55.35-102.5 38.95-45.1 95.325-45.1 137.35-3.075 19.475 17.425 51.25 74.825 56.375 105.575 18.45 1.025 21.525 22.55 27.675 46.125 6.15 18.45-1.025 45.1-20.5 45.1zM525.826 209.425c-1.025 2.050-2.050 4.1-4.1 4.1h-21.525c-2.050 0-4.1-2.050-4.1-4.1l-11.275-50.225c0-1.025 0-1.025 0-2.050 7.175-17.425 15.375-33.825 23.575-50.225 1.025-2.050 4.1-2.050 5.125 0 8.2 16.4 16.4 32.8 23.575 50.225 0 1.025 0 1.025 0 2.050l-11.275 50.225zM495.075 230.95h30.75c2.050 0 4.1 1.025 4.1 3.075l6.15 31.775c1.025 3.075-1.025 5.125-4.1 5.125h-43.050c-3.075 0-5.125-3.075-4.1-5.125l6.15-31.775c1.025-2.050 2.050-3.075 4.1-3.075zM403.85 294.5l216.275 2.050c0 0 0-1.025 0-1.025 0-9.225-1.025-19.475-3.075-30.75-4.1-32.8-11.275-69.7-11.275-69.7-9.225 16.4-18.45 26.65-26.65 33.825-4.1 3.075-8.2 6.15-11.275 7.175-1.025-52.275-8.2-117.875-44.075-176.3-5.125-7.175-11.275-8.2-12.3-8.2s-9.225 0-13.325 8.2c-35.875 57.4-42.025 121.975-46.125 172.2-1.025-1.025-3.075-2.050-5.125-4.1-8.2-6.15-17.425-17.425-28.7-35.875 0 0-8.2 44.075-12.3 78.925-1.025 8.2-1.025 16.4-1.025 22.55 0 1.025 0 3.075 0 4.1-112.75-36.9-197.825-120.95-197.825-167.075 0-59.45 0-90.2 0-90.2h607.826c0 0 0 25.625 0 90.2 0 44.075-83.025 128.125-194.75 166.050zM845.626 332.425h-79.95c0 1.025-26.65-8.2-26.65-8.2-24.6-8.2-47.15-19.475-66.625-32.8 35.875-16.4 69.7-38.95 97.375-63.55 25.625-23.575 44.075-47.15 53.3-68.675h178.35c0 0 0 17.425 0 58.425 0 27.675-84.050 91.225-155.8 114.8zM345.425 288.35c-26.65 18.45-58.425 34.85-87.125 44.075h-79.95c0 1.025-27.675-8.2-27.675-8.2-71.75-23.575-126.075-77.9-126.075-106.6 0-38.95 0-58.425 0-58.425h174.25c19.475 43.050 77.9 94.3 146.575 129.15z" />
<glyph unicode="&#xe831;" glyph-name="step1-prepare" d="M546.326 165.35l-103.525-48.175c-4.1-2.050-9.225 0-11.275 4.1l-48.175 104.55c-2.050 4.1 0 9.225 4.1 11.275l103.525 48.175c4.1 2.050 9.225 0 11.275-4.1l48.175-104.55c2.050-4.1 1.025-9.225-4.1-11.275zM442.8 136.65l89.175 41-41 88.15-89.175-41 41-88.15zM323.9 514.875l-52.275 21.525c-3.075 1.025-5.125 4.1-3.075 7.175l6.15 15.375c1.025 3.075 4.1 5.125 7.175 3.075l21.525-8.2c3.075-2.050 7.175 0 8.2 4.1 6.15 26.65 20.5 71.75 46.125 99.425 2.050 2.050 6.15 2.050 8.2 0l11.275-12.3c2.050-2.050 2.050-5.125 0-7.175-31.775-34.85-44.075-106.6-44.075-107.625l-1.025-10.25c-1.025-4.1-4.1-6.15-8.2-5.125zM374.125 520l-89.175-41-41 89.175 56.375 25.625c3.075 7.175 6.15 15.375 9.225 23.575l-79.95-37.925c-4.1-2.050-6.15-7.175-4.1-11.275l48.175-103.525c2.050-4.1 7.175-6.15 11.275-4.1l103.525 48.175c4.1 2.050 6.15 7.175 4.1 11.275l-25.625 54.325c-3.075-8.2-5.125-16.4-7.175-23.575l14.35-30.75zM402.825 344.725l-52.275 20.5c-3.075 1.025-5.125 5.125-3.075 8.2l6.15 15.375c1.025 3.075 4.1 4.1 7.175 3.075l21.525-9.225c3.075-1.025 7.175 1.025 8.2 4.1 6.15 27.675 20.5 71.75 46.125 99.425 2.050 3.075 6.15 3.075 8.2 0l11.275-11.275c2.050-2.050 2.050-6.15 0-8.2-31.775-33.825-44.075-106.6-44.075-106.6l-1.025-10.25c-1.025-4.1-4.1-6.15-8.2-5.125zM452.025 349.85l-88.15-41-41 88.15 56.375 25.625c3.075 8.2 6.15 15.375 9.225 23.575l-80.975-36.9c-4.1-2.050-6.15-7.175-4.1-11.275l48.175-104.55c2.050-4.1 7.175-6.15 11.275-4.1l104.55 48.175c4.1 2.050 6.15 7.175 4.1 11.275l-25.625 55.35c-3.075-8.2-6.15-16.4-8.2-24.6l14.35-29.725zM833.326 540.5l-331.075-530.951c0 0 0-1.025 0-1.025l-9.225-62.525c-1.025-3.075 3.075-5.125 5.125-3.075l52.275 35.875c0 0 0 0 1.025 1.025l330.050 530.951c7.175 11.275 4.1 27.675-8.2 34.85l-5.125 3.075c-12.3 8.2-27.675 4.1-34.85-8.2zM815.901 226.85l-117.875-54.325-22.55-36.9 171.175 77.9c7.175 3.075 10.25 12.3 7.175 19.475l-50.225 107.625-14.35-22.55 33.825-72.775c3.075-6.15 0-15.375-7.175-18.45zM412.050 55.675l-243.95 528.901c-3.075 6.15 0 14.35 7.175 17.425l391.55 180.4c7.175 3.075 14.35 0 17.425-7.175l154.775-336.2 15.375 23.575-158.875 343.375c-3.075 6.15-10.25 9.225-17.425 6.15l-431.525-199.875c-6.15-3.075-9.225-11.275-6.15-17.425l261.375-569.901c3.075-6.15 11.275-9.225 17.425-6.15l84.050 39.975 22.55 35.875-95.325-46.125c-8.2-3.075-15.375 0-18.45 7.175zM422.3 586.625c-4.1 0-7.175 2.050-9.225 6.15-2.050 5.125 0 11.275 5.125 13.325l140.425 61.5c5.125 3.075 11.275 0 13.325-5.125 3.075-5.125 0-11.275-5.125-13.325l-140.425-61.5c-1.025-1.025-3.075-1.025-4.1-1.025zM495.075 424.675c-4.1 0-8.2 2.050-9.225 6.15-3.075 5.125 0 11.275 5.125 13.325l140.425 62.525c5.125 2.050 11.275 0 13.325-5.125s0-11.275-5.125-13.325l-140.425-62.525c-2.050 0-3.075-1.025-4.1-1.025zM569.901 260.675c-5.125-2.050-7.175-8.2-5.125-13.325 1.025-3.075 5.125-6.15 9.225-6.15 1.025 0 3.075 1.025 4.1 1.025l51.25 21.525 19.475 31.775-78.925-34.85z" />
<glyph unicode="&#xe832;" glyph-name="step2-shop-for-a-home" d="M816.926 318.075l-1.025 262.4c0 3.075-1.025 5.125-3.075 6.15l-56.375 32.8c-2.050 1.025-3.075 3.075-3.075 5.125v63.55c0 3.075-3.075 6.15-6.15 6.15h-28.7c-4.1 0-7.175-3.075-7.175-6.15v-30.75c0-5.125-5.125-8.2-10.25-6.15l-112.75 66.625c-2.050 1.025-5.125 1.025-7.175 0l-224.475-132.225c-2.050-1.025-3.075-4.1-3.075-6.15l1.025-261.375c0-4.1 3.075-7.175 7.175-7.175h171.175c3.075 0 6.15 3.075 6.15 7.175v193.725c0 4.1 3.075 7.175 7.175 7.175h79.95c4.1 0 7.175-3.075 7.175-7.175v-193.725c0-3.075 3.075-6.15 6.15-6.15h172.2c2.050-1.025 5.125 2.050 5.125 6.15zM471.5 380.6h-48.175c-4.1 0-7.175 3.075-7.175 6.15v78.925c0 3.075 3.075 6.15 7.175 6.15h48.175c3.075 0 6.15-3.075 6.15-6.15v-78.925c0-3.075-3.075-6.15-6.15-6.15zM753.376 465.675v-77.9c0-4.1-3.075-7.175-7.175-7.175h-48.175c-3.075 0-6.15 3.075-6.15 7.175v77.9c0 4.1 3.075 7.175 6.15 7.175h48.175c4.1 0 7.175-3.075 7.175-7.175zM338.25 217.625h534.026c3.075 0 5.125 2.050 6.15 5.125 0 0 61.5 342.35 62.525 346.45 1.025 3.075 1.025 13.325-6.15 13.325-5.125 0-13.325 1.025-13.325 1.025-4.1 0-8.2-4.1-9.225-9.225l-58.425-316.725c-1.025-6.15-5.125-10.25-11.275-10.25h-516.6c-5.125 0-9.225 4.1-11.275 9.225l-129.15 462.275c-1.025 5.125-6.15 9.225-11.275 9.225h-80.975c-6.15 0-11.275-5.125-11.275-12.3v-6.15c0-6.15 5.125-11.275 11.275-11.275h58.425c5.125 0 9.225-4.1 11.275-9.225l130.175-467.4c1.025-3.075 1.025-6.15 0-8.2l-16.4-35.875c-36.9-4.1-66.625-35.875-66.625-74.825 0-41 33.825-74.825 75.85-74.825 35.875 0 66.625 25.625 73.8 60.475h407.95c6.15-34.85 36.9-60.475 73.8-60.475 41 0 74.825 33.825 74.825 74.825 0 42.025-33.825 75.85-74.825 75.85-35.875 0-64.575-24.6-72.775-57.4h-410c-6.15 24.6-23.575 44.075-47.15 52.275l16.4 37.925c2.050 4.1 6.15 6.15 10.25 6.15z" />
<glyph unicode="&#xe833;" glyph-name="step3-offer" d="M421.275 566.125c-4.1 21.525-15.375 61.5-33.825 91.225-23.575 37.925-58.425 73.8-112.75 95.325s-108.65 14.35-147.6-20.5c-36.9-30.75-53.3-79.95-41-125.050 8.2-30.75 18.45-82 136.325-110.7l24.6 24.6c-100.45 18.45-116.85 62.525-127.1 94.3-11.275 31.775 5.125 68.675 30.75 91.225 28.7 25.625 69.7 31.775 111.725 14.35 22.55-13.325 88.15-42.025 116.85-119.925 9.225-23.575 15.375-75.85 16.4-84.050s7.175-16.4 17.425-16.4 17.425 8.2 16.4 16.4c0 6.15-3.075 24.6-8.2 49.2zM939.926 307.825l-364.9 363.875c-1.025 1.025-4.1 2.050-6.15 3.075l-108.65 9.225c-3.075 1.025-6.15-1.025-8.2-3.075l-30.75-31.775c16.4-34.85 23.575-69.7 25.625-77.9 0-3.075 1.025-6.15 2.050-9.225 10.25-10.25 16.4-24.6 16.4-39.975 0-31.775-25.625-57.4-57.4-57.4s-57.4 25.625-57.4 57.4c0 14.35 5.125 26.65 13.325 36.9-2.050 10.25-4.1 20.5-6.15 28.7l-6.15-5.125-100.45-101.475c-2.050-2.050-3.075-5.125-3.075-7.175l7.175-105.575c0-2.050 1.025-4.1 3.075-6.15l366.95-369c4.1-4.1 10.25-4.1 14.35 0l299.3 300.325c5.125 3.075 5.125 10.25 1.025 14.35zM687.776 212.5l-21.525 21.525c-1.025 2.050-4.1 2.050-6.15 0 0 0-1.025-1.025-2.050-2.050-1.025 0-1.025-1.025-2.050-2.050-2.050-1.025-3.075-2.050-4.1-3.075-1.025 0-2.050-1.025-3.075-2.050s-3.075-2.050-5.125-3.075c0-1.025-1.025-1.025-1.025-1.025-2.050-2.050-5.125-3.075-7.175-4.1 0-1.025-1.025-1.025-1.025-1.025-2.050-1.025-4.1-2.050-5.125-3.075-1.025 0-2.050 0-3.075-1.025-1.025 0-2.050-1.025-4.1-2.050-1.025 0-1.025 0-2.050-1.025s-3.075-1.025-4.1-1.025c-1.025-1.025-1.025-1.025-2.050-1.025s-1.025-1.025-2.050-1.025c0 0 0 0 0 0-1.025 0-2.050 0-3.075-1.025l-2.050 3.075-16.4 29.725-3.075 5.125c2.050 0 4.1 1.025 6.15 1.025 1.025 1.025 1.025 1.025 2.050 1.025 2.050 1.025 3.075 1.025 4.1 2.050 1.025 0 2.050 0 3.075 1.025s2.050 1.025 3.075 1.025c1.025 1.025 2.050 1.025 3.075 2.050 1.025 0 2.050 1.025 3.075 2.050 1.025 0 2.050 1.025 3.075 1.025 1.025 1.025 2.050 2.050 4.1 2.050 1.025 1.025 2.050 1.025 2.050 2.050 2.050 1.025 3.075 1.025 4.1 2.050s2.050 1.025 3.075 2.050c1.025 1.025 3.075 2.050 4.1 3.075 0 0 1.025 1.025 2.050 1.025 2.050 2.050 4.1 4.1 6.15 6.15 14.35 14.35 18.45 29.725 9.225 39.975-10.25 9.225-23.575 7.175-49.2-4.1-35.875-17.425-67.65-23.575-91.225 2.050-2.050 1.025-3.075 2.050-4.1 4.1 0 0 0 1.025-1.025 1.025 0 1.025-1.025 2.050-2.050 3.075 0 1.025 0 1.025-1.025 2.050 0 1.025-1.025 2.050-1.025 3.075-1.025 1.025-1.025 2.050-1.025 2.050-1.025 1.025-1.025 2.050-2.050 3.075 0 1.025 0 2.050-1.025 2.050 0 1.025 0 2.050-1.025 3.075 0 1.025 0 2.050 0 3.075-1.025 1.025-1.025 2.050-1.025 3.075s0 1.025 0 2.050-1.025 2.050-1.025 3.075 0 2.050 0 3.075c0 0 0 1.025 0 2.050v0c0 1.025 0 2.050 0 3.075s0 2.050 0 3.075 0 1.025 0 2.050 0 2.050 1.025 3.075c0 1.025 0 2.050 0 3.075s1.025 2.050 1.025 3.075 0 2.050 0 2.050 1.025 2.050 1.025 2.050 0 1.025 0 1.025c1.025 1.025 1.025 2.050 1.025 3.075 0 0 1.025 1.025 1.025 2.050 0 0 0 1.025 0 1.025 1.025 1.025 1.025 2.050 1.025 3.075 1.025 1.025 1.025 2.050 2.050 3.075 0 1.025 1.025 2.050 1.025 3.075 1.025 1.025 1.025 2.050 2.050 3.075 0 1.025 1.025 2.050 1.025 3.075 1.025 0 1.025 1.025 1.025 1.025-1.025 2.050-1.025 4.1 0 6.15l-21.525 21.525 24.6 24.6 19.475-19.475c1.025-1.025 2.050-1.025 3.075-1.025s2.050 0 3.075 1.025c0 0 1.025 1.025 2.050 1.025 1.025 1.025 1.025 2.050 2.050 2.050 1.025 1.025 2.050 2.050 4.1 3.075 0 1.025 1.025 1.025 2.050 2.050 1.025 0 2.050 1.025 3.075 2.050 0 0 1.025 1.025 2.050 1.025v1.025c1.025 0 2.050 1.025 2.050 1.025 1.025 1.025 2.050 2.050 4.1 2.050 0 1.025 1.025 1.025 1.025 1.025 1.025 1.025 3.075 2.050 4.1 2.050 0 1.025 1.025 1.025 2.050 1.025 1.025 1.025 2.050 1.025 3.075 2.050 0 0 1.025 0 2.050 1.025 1.025 0 2.050 1.025 3.075 1.025 0 0 1.025 0 1.025 0s1.025 0 1.025 1.025v0c1.025 0 2.050 1.025 3.075 1.025l2.050-3.075 14.35-25.625 4.1-7.175c-2.050-1.025-4.1-2.050-7.175-3.075-1.025 0-1.025-1.025-1.025-1.025-2.050 0-3.075-1.025-5.125-2.050 0 0-1.025 0-1.025 0-1.025-1.025-3.075-1.025-4.1-2.050 0-1.025-1.025-1.025-2.050-1.025-1.025-1.025-2.050-2.050-3.075-2.050-1.025-1.025-2.050-1.025-2.050-2.050-1.025-1.025-3.075-1.025-4.1-2.050s-1.025-1.025-2.050-2.050c-2.050-1.025-3.075-2.050-4.1-3.075-1.025 0-2.050-1.025-2.050-1.025-2.050-2.050-4.1-4.1-7.175-6.15-16.4-16.4-14.35-28.7-8.2-35.875 8.2-8.2 22.55-5.125 52.275 8.2 41 19.475 67.65 17.425 90.2-6.15 1.025-1.025 2.050-3.075 4.1-4.1 0-1.025 0-1.025 1.025-2.050s1.025-2.050 2.050-3.075c0 0 1.025-1.025 1.025-2.050s1.025-2.050 1.025-3.075c1.025 0 1.025-1.025 1.025-2.050 1.025-1.025 1.025-2.050 2.050-3.075 0 0 0-1.025 1.025-2.050s0-2.050 1.025-3.075v0c0-1.025 0-2.050 0-3.075 1.025-1.025 1.025-2.050 1.025-3.075s1.025-1.025 1.025-2.050 0-2.050 0-3.075 0-2.050 0-3.075 0-2.050 0-3.075 0-2.050 0-2.050c0-1.025 0-2.050 0-3.075 0 0 0 0 0-1.025s0-2.050 0-3.075 0-2.050 0-3.075-1.025-2.050-1.025-3.075 0-2.050 0-3.075-1.025-2.050-1.025-3.075c0-1.025 0-2.050-1.025-3.075s0-2.050-1.025-3.075-1.025-2.050-1.025-3.075c0-1.025-1.025-2.050-1.025-3.075-1.025-1.025-1.025-2.050-2.050-3.075 0-1.025-1.025-2.050-1.025-3.075-1.025-1.025-1.025-2.050-2.050-3.075s-1.025-2.050-2.050-3.075c-1.025 0-1.025-1.025-1.025-1.025-1.025-1.025-1.025-2.050-1.025-3.075s0-1.025 1.025-2.050 0-1.025 1.025-1.025l22.55-23.575-24.6-24.6z" />
<glyph unicode="&#xe834;" glyph-name="step5-closing-time" d="M512.5-56.050c-238.825 0-433.575 194.75-433.575 433.575s194.75 433.575 433.575 433.575 433.575-193.725 433.575-433.575-194.75-433.575-433.575-433.575zM512.5 770.1c-216.275 0-392.575-176.3-392.575-392.575s176.3-392.575 392.575-392.575 392.575 176.3 392.575 392.575-176.3 392.575-392.575 392.575zM481.75 303.725c1.025-2.050 0 0 0 0l190.65-152.725c10.25-9.225 21.525 3.075 13.325 12.3l-84.050 105.575c-1.025 1.025-67.65 82-67.65 82M534.026 350.875c-1.025 0-142.475 340.3-142.475 340.3-2.050 9.225-17.425 4.1-13.325-6.15l102.5-381.3c1.025-1.025 2.050-2.050 3.075-1.025" />
<glyph unicode="&#xe835;" glyph-name="text-banking" d="M837.426 651.2h-650.876c-21.525 0-39.975-18.45-39.975-39.975v-359.775c0-21.525 18.45-39.975 39.975-39.975h285.975c19.475-16.4 27.675-22.55 28.7-23.575 37.925-26.65 125.050-76.875 197.825-83.025 8.2-1.025 12.3 8.2 8.2 14.35-25.625 31.775-52.275 61.5-63.55 90.2-1.025 1.025-1.025 2.050-1.025 3.075h195.775c22.55 0 39.975 17.425 39.975 39.975v358.75c0 21.525-18.45 39.975-41 39.975zM528.901 326.275c-3.075 0-5.125-3.075-5.125-6.15v-26.65c0-3.075-3.075-6.15-6.15-6.15h-23.575c-4.1 0-7.175 3.075-7.175 6.15v23.575c0 3.075-2.050 6.15-6.15 6.15-20.5 2.050-39.975 7.175-53.3 13.325-3.075 2.050-4.1 5.125-3.075 8.2l8.2 30.75c1.025 4.1 5.125 6.15 9.225 4.1 14.35-7.175 33.825-12.3 55.35-12.3s35.875 8.2 35.875 23.575c0 14.35-12.3 23.575-39.975 32.8-39.975 13.325-67.65 31.775-67.65 68.675 0 31.775 21.525 57.4 58.425 66.625 3.075 0 5.125 3.075 5.125 6.15v22.55c0 4.1 3.075 7.175 7.175 7.175h23.575c3.075 0 6.15-3.075 6.15-7.175v-20.5c0-3.075 3.075-6.15 6.15-6.15 19.475-2.050 32.8-5.125 44.075-10.25 3.075-1.025 4.1-4.1 3.075-7.175l-7.175-29.725c-1.025-4.1-5.125-6.15-9.225-5.125-10.25 4.1-25.625 10.25-47.15 10.25-24.6 0-31.775-11.275-31.775-21.525 0-12.3 13.325-20.5 45.1-31.775 45.1-16.4 62.525-36.9 62.525-70.725-1.025-31.775-22.55-59.45-62.525-68.675z" />
<glyph unicode="&#xe836;" glyph-name="traditional-lending" d="M125.050 419.55c-3.075 0-5.125 1.025-7.175 2.050l-68.675 52.275c-2.050 2.050-4.1 4.1-4.1 7.175-1.025 1.025-1.025 3.075 0 4.1l138.375 179.375c1.025 2.050 4.1 2.050 5.125 2.050 2.050 0 5.125-1.025 7.175-2.050l67.65-52.275c2.050-2.050 4.1-4.1 4.1-6.15 0-1.025 1.025-3.075 0-5.125l-139.4-180.4c0-1.025-2.050-1.025-3.075-1.025zM900.976 412.375c-1.025 0-3.075 0-4.1 2.050l-141.45 177.325c-1.025 2.050-1.025 4.1 0 5.125 0 2.050 2.050 4.1 4.1 6.15l67.65 53.3c2.050 2.050 5.125 3.075 7.175 3.075 1.025 0 3.075 0 4.1-2.050l141.45-178.35c1.025-2.050 0-7.175-4.1-10.25l-67.65-53.3c-2.050-2.050-5.125-3.075-7.175-3.075v0zM480.725 88.475c-1.025 0-3.075 1.025-4.1 1.025-4.1 1.025-7.175 4.1-9.225 7.175s-2.050 8.2-1.025 12.3l28.7 80.975c2.050 6.15 8.2 11.275 15.375 11.275 1.025 0 3.075-1.025 4.1-1.025 4.1-1.025 7.175-4.1 9.225-7.175s2.050-8.2 1.025-12.3l-28.7-80.975c-2.050-7.175-8.2-11.275-15.375-11.275v0zM413.075 124.35c-1.025 0-3.075 0-4.1 0-4.1 1.025-7.175 4.1-9.225 8.2s-2.050 7.175-1.025 11.275l28.7 80.975c2.050 7.175 8.2 11.275 15.375 11.275 1.025 0 3.075 0 4.1 0 4.1-1.025 7.175-4.1 9.225-8.2s2.050-7.175 1.025-11.275l-28.7-80.975c-2.050-7.175-8.2-11.275-15.375-11.275v0zM346.45 163.3c-2.050 0-3.075 0-5.125 0-8.2 3.075-12.3 11.275-10.25 19.475l21.525 55.35c2.050 7.175 8.2 11.275 14.35 11.275 2.050 0 3.075 0 5.125 0 4.1-1.025 7.175-4.1 9.225-8.2s2.050-7.175 1.025-11.275l-21.525-55.35c-2.050-7.175-7.175-11.275-14.35-11.275v0zM560.676 106.925c-1.025 1.025-21.525 15.375-21.525 15.375l11.275 28.7c3.075-3.075 23.575-18.45 23.575-19.475v0c6.15-6.15 10.25-15.375 1.025-23.575v0c-2.050-3.075-11.275-4.1-14.35-1.025zM277.775 199.175c-1.025 0-3.075 0-4.1 0-8.2 3.075-13.325 11.275-10.25 19.475l13.325 30.75c2.050 7.175 8.2 11.275 14.35 11.275 2.050 0 3.075 0 5.125 0 8.2-3.075 12.3-11.275 10.25-19.475l-6.15-14.35c-2.050-9.225-15.375-28.7-22.55-27.675zM636.526 140.75c-1.025 0-1.025 0-2.050 0-3.075 1.025-6.15 2.050-8.2 4.1 0 0-62.525 53.3-62.525 53.3 0 12.3-4.1 25.625-12.3 37.925-6.15 8.2-14.35 13.325-26.65 16.4-3.075 1.025-7.175 1.025-10.25 2.050-1.025 0-2.050 0-3.075 0s-3.075 0-4.1 0c-4.1-1.025-8.2-1.025-12.3-2.050-1.025 1.025-2.050 2.050-2.050 4.1-9.225 13.325-22.55 22.55-37.925 26.65-3.075 0-7.175 1.025-10.25 1.025-1.025 0-2.050 0-3.075 0-2.050 0-3.075 0-5.125 0-10.25-1.025-20.5-4.1-28.7-10.25-8.2 8.2-18.45 13.325-29.725 15.375-3.075 1.025-6.15 1.025-9.225 2.050-1.025 0-2.050 0-3.075 0-2.050 0-3.075 0-5.125 0-11.275-1.025-21.525-5.125-30.75-11.275-7.175 7.175-17.425 12.3-27.675 14.35-3.075 1.025-7.175 1.025-10.25 2.050-1.025 0-2.050 0-3.075 0s-3.075 0-4.1 0c-1.025 0-2.050 0-3.075-1.025l-116.85 113.775 126.075 168.1c6.15-2.050 17.425-5.125 26.65-5.125 0 0 1.025 0 1.025 0 8.2 0 21.525 5.125 39.975 12.3 10.25 4.1 23.575 10.25 27.675 10.25v0c7.175 0 18.45-2.050 26.65-4.1-29.725-20.5-80.975-69.7-125.050-111.725-5.125-5.125-9.225-8.2-11.275-10.25-20.5-19.475-25.625-47.15-13.325-72.775 12.3-26.65 39.975-44.075 67.65-44.075 3.075 0 6.15 0 9.225 0 10.25 2.050 20.5 5.125 29.725 11.275 38.95 24.6 103.525 65.6 123 77.9 1.025 0 2.050 1.025 3.075 1.025 4.1 2.050 9.225 4.1 15.375 7.175 1.025 1.025 4.1 2.050 7.175 3.075l7.175 2.050c0 0 6.15 2.050 13.325 2.050 5.125 0 9.225-1.025 12.3-2.050 13.325-8.2 82-64.575 167.075-138.375l69.7-61.5c3.075-3.075 5.125-6.15 5.125-10.25s-1.025-8.2-4.1-11.275l-1.025-1.025c-2.050-3.075-6.15-4.1-10.25-4.1v0c-1.025 0-1.025 0-2.050 0-3.075 0-6.15 1.025-8.2 3.075l-1.025 2.050c-54.325 46.125-88.15 74.825-90.2 76.875-4.1 3.075-9.225 6.15-14.35 6.15 0 0-1.025 0-2.050 0-9.225 0-17.425-5.125-21.525-13.325-4.1-9.225-1.025-19.475 6.15-26.65 2.050-2.050 10.25-9.225 20.5-18.45 16.4-14.35 38.95-32.8 50.225-43.050l6.15-5.125c5.125-5.125 6.15-14.35 1.025-20.5l-1.025-1.025c-3.075-3.075-7.175-5.125-11.275-5.125 0 0-1.025 0-1.025 0-3.075 1.025-6.15 2.050-8.2 4.1-1.025 0-83.025 72.775-87.125 76.875s-9.225 6.15-14.35 7.175c-1.025 0-1.025 0-2.050 0-9.225 0-17.425-5.125-21.525-14.35s-1.025-19.475 6.15-26.65c3.075-3.075 64.575-59.45 65.6-60.475 3.075-2.050 4.1-6.15 5.125-10.25 0-4.1-1.025-7.175-4.1-10.25l-2.050-2.050c-3.075-4.1-7.175-6.15-10.25-6.15zM776.951 322.175c-34.85 29.725-186.55 161.95-208.075 172.2-9.225 4.1-19.475 6.15-30.75 6.15-12.3 0-22.55-2.050-24.6-3.075-7.175-1.025-30.75-8.2-43.050-16.4l-1.025-1.025c-55.35-34.85-99.425-62.525-125.050-78.925-3.075-2.050-7.175-3.075-10.25-4.1-1.025 0-2.050 0-3.075 0-13.325 0-23.575 10.25-27.675 18.45-3.075 8.2-2.050 15.375 3.075 20.5 24.6 22.55 83.025 72.775 83.025 73.8 2.050 1.025 8.2 6.15 13.325 10.25s9.225 7.175 11.275 9.225c13.325 11.275 43.050 29.725 82 43.050 6.15 2.050 14.35 4.1 17.425 5.125l6.15 1.025c5.125 0 10.25 1.025 16.4 1.025 1.025 0 1.025 0 2.050 0 29.725 0 100.45-33.825 125.050-47.15h1.025l1.025-1.025c3.075-1.025 6.15-1.025 9.225-1.025 1.025 0 3.075 0 4.1 0 5.125 1.025 9.225 2.050 13.325 4.1l39.975 23.575 124.025-155.8c-15.375-15.375-68.675-68.675-76.875-77.9 0-1.025-1.025-2.050-2.050-2.050z" />
<glyph unicode="&#xe837;" glyph-name="transfer-funds" d="M875.351 550.75l-162.975 162.975c-6.15 5.125-16.4 1.025-16.4-7.175v-111.725h-536.076c-7.175 0-12.3-6.15-12.3-13.325v-74.825c0-7.175 5.125-13.325 12.3-13.325h536.076v-111.725c0-8.2 10.25-12.3 16.4-7.175l162.975 162.975c3.075 3.075 3.075 9.225 0 13.325zM865.101 261.7h-536.076v112.75c0 8.2-10.25 12.3-16.4 6.15l-162.975-162.975c-3.075-3.075-3.075-9.225 0-13.325l162.975-162.975c6.15-5.125 16.4-1.025 16.4 7.175v111.725h536.076c7.175 0 12.3 6.15 12.3 13.325v74.825c0 8.2-5.125 13.325-12.3 13.325z" />
</font>
</defs>
</svg>
